  0
SECTION
  2
HEADER
  9
$ACADVER
  1
AC1015
  9
$ACADMAINTVER
 70
    20
  9
$DWGCODEPAGE
  3
ANSI_936
  9
$INSBASE
 10
0.0
 20
0.0
 30
0.0
  9
$EXTMIN
 10
843.4449641612584
 20
63.2958704485922
 30
0.0
  9
$EXTMAX
 10
872.6713543102787
 20
178.159223495501
 30
0.0
  9
$LIMMIN
 10
0.0
 20
0.0
  9
$LIMMAX
 10
12.0
 20
9.0
  9
$ORTHOMODE
 70
     1
  9
$REGENMODE
 70
     1
  9
$FILLMODE
 70
     1
  9
$QTEXTMODE
 70
     0
  9
$MIRRTEXT
 70
     0
  9
$LTSCALE
 40
1.0
  9
$ATTMODE
 70
     1
  9
$TEXTSIZE
 40
0.2
  9
$TRACEWID
 40
0.05
  9
$TEXTSTYLE
  7
STANDARD
  9
$CLAYER
  8
0
  9
$CELTYPE
  6
ByLayer
  9
$CECOLOR
 62
   256
  9
$CELTSCALE
 40
1.0
  9
$DISPSILH
 70
     0
  9
$DIMSCALE
 40
1.0
  9
$DIMASZ
 40
0.65
  9
$DIMEXO
 40
0.88
  9
$DIMDLI
 40
0.015
  9
$DIMRND
 40
0.0
  9
$DIMDLE
 40
0.0
  9
$DIMEXE
 40
0.32
  9
$DIMTP
 40
0.0
  9
$DIMTM
 40
0.0
  9
$DIMTXT
 40
0.65
  9
$DIMCEN
 40
0.09
  9
$DIMTSZ
 40
0.0
  9
$DIMTOL
 70
     0
  9
$DIMLIM
 70
     0
  9
$DIMTIH
 70
     0
  9
$DIMTOH
 70
     0
  9
$DIMSE1
 70
     0
  9
$DIMSE2
 70
     0
  9
$DIMTAD
 70
     0
  9
$DIMZIN
 70
     8
  9
$DIMBLK
  1

  9
$DIMASO
 70
     1
  9
$DIMSHO
 70
     1
  9
$DIMPOST
  1
"
  9
$DIMAPOST
  1
"
  9
$DIMALT
 70
     0
  9
$DIMALTD
 70
     1
  9
$DIMALTF
 40
0.03937
  9
$DIMLFAC
 40
1.0
  9
$DIMTOFL
 70
     1
  9
$DIMTVP
 40
0.0
  9
$DIMTIX
 70
     0
  9
$DIMSOXD
 70
     0
  9
$DIMSAH
 70
     0
  9
$DIMBLK1
  1

  9
$DIMBLK2
  1

  9
$DIMSTYLE
  2
副本STANDARD
  9
$DIMCLRD
 70
     3
  9
$DIMCLRE
 70
     3
  9
$DIMCLRT
 70
     3
  9
$DIMTFAC
 40
1.0
  9
$DIMGAP
 40
0.2
  9
$DIMJUST
 70
     0
  9
$DIMSD1
 70
     0
  9
$DIMSD2
 70
     0
  9
$DIMTOLJ
 70
     1
  9
$DIMTZIN
 70
     8
  9
$DIMALTZ
 70
     8
  9
$DIMALTTZ
 70
     8
  9
$DIMUPT
 70
     0
  9
$DIMDEC
 70
     3
  9
$DIMTDEC
 70
     3
  9
$DIMALTU
 70
     2
  9
$DIMALTTD
 70
     1
  9
$DIMTXSTY
  7
STANDARD
  9
$DIMAUNIT
 70
     0
  9
$DIMADEC
 70
     0
  9
$DIMALTRND
 40
0.0
  9
$DIMAZIN
 70
     0
  9
$DIMDSEP
 70
    46
  9
$DIMATFIT
 70
     3
  9
$DIMFRAC
 70
     2
  9
$DIMLDRBLK
  1

  9
$DIMLUNIT
 70
     5
  9
$DIMLWD
 70
    13
  9
$DIMLWE
 70
    13
  9
$DIMTMOVE
 70
     2
  9
$LUNITS
 70
     2
  9
$LUPREC
 70
     4
  9
$SKETCHINC
 40
0.1
  9
$FILLETRAD
 40
0.0
  9
$AUNITS
 70
     0
  9
$AUPREC
 70
     0
  9
$MENU
  1
.
  9
$ELEVATION
 40
0.0
  9
$PELEVATION
 40
0.0
  9
$THICKNESS
 40
0.0
  9
$LIMCHECK
 70
     0
  9
$CHAMFERA
 40
0.0
  9
$CHAMFERB
 40
0.0
  9
$CHAMFERC
 40
0.0
  9
$CHAMFERD
 40
0.0
  9
$SKPOLY
 70
     0
  9
$TDCREATE
 40
2455434.724808658
  9
$TDUCREATE
 40
2455434.391475324
  9
$TDUPDATE
 40
2458648.720920058
  9
$TDUUPDATE
 40
2458648.387586725
  9
$TDINDWG
 40
0.2306140278
  9
$TDUSRTIMER
 40
0.2306097106
  9
$USRTIMER
 70
     1
  9
$ANGBASE
 50
0.0
  9
$ANGDIR
 70
     0
  9
$PDMODE
 70
     0
  9
$PDSIZE
 40
0.0
  9
$PLINEWID
 40
0.0
  9
$SPLFRAME
 70
     0
  9
$SPLINETYPE
 70
     6
  9
$SPLINESEGS
 70
     8
  9
$HANDSEED
  5
5DDC
  9
$SURFTAB1
 70
     6
  9
$SURFTAB2
 70
     6
  9
$SURFTYPE
 70
     6
  9
$SURFU
 70
     6
  9
$SURFV
 70
     6
  9
$UCSBASE
  2

  9
$UCSNAME
  2

  9
$UCSORG
 10
0.0
 20
0.0
 30
0.0
  9
$UCSXDIR
 10
1.0
 20
0.0
 30
0.0
  9
$UCSYDIR
 10
0.0
 20
1.0
 30
0.0
  9
$UCSORTHOREF
  2

  9
$UCSORTHOVIEW
 70
     0
  9
$UCSORGTOP
 10
0.0
 20
0.0
 30
0.0
  9
$UCSORGBOTTOM
 10
0.0
 20
0.0
 30
0.0
  9
$UCSORGLEFT
 10
0.0
 20
0.0
 30
0.0
  9
$UCSORGRIGHT
 10
0.0
 20
0.0
 30
0.0
  9
$UCSORGFRONT
 10
0.0
 20
0.0
 30
0.0
  9
$UCSORGBACK
 10
0.0
 20
0.0
 30
0.0
  9
$PUCSBASE
  2

  9
$PUCSNAME
  2

  9
$PUCSORG
 10
0.0
 20
0.0
 30
0.0
  9
$PUCSXDIR
 10
1.0
 20
0.0
 30
0.0
  9
$PUCSYDIR
 10
0.0
 20
1.0
 30
0.0
  9
$PUCSORTHOREF
  2

  9
$PUCSORTHOVIEW
 70
     0
  9
$PUCSORGTOP
 10
0.0
 20
0.0
 30
0.0
  9
$PUCSORGBOTTOM
 10
0.0
 20
0.0
 30
0.0
  9
$PUCSORGLEFT
 10
0.0
 20
0.0
 30
0.0
  9
$PUCSORGRIGHT
 10
0.0
 20
0.0
 30
0.0
  9
$PUCSORGFRONT
 10
0.0
 20
0.0
 30
0.0
  9
$PUCSORGBACK
 10
0.0
 20
0.0
 30
0.0
  9
$USERI1
 70
     0
  9
$USERI2
 70
     0
  9
$USERI3
 70
     0
  9
$USERI4
 70
     0
  9
$USERI5
 70
     0
  9
$USERR1
 40
0.0
  9
$USERR2
 40
0.0
  9
$USERR3
 40
0.0
  9
$USERR4
 40
0.0
  9
$USERR5
 40
2.5
  9
$WORLDVIEW
 70
     1
  9
$SHADEDGE
 70
     3
  9
$SHADEDIF
 70
    70
  9
$TILEMODE
 70
     1
  9
$MAXACTVP
 70
    64
  9
$PINSBASE
 10
0.0
 20
0.0
 30
0.0
  9
$PLIMCHECK
 70
     0
  9
$PEXTMIN
 10
1.000000000000000E+20
 20
1.000000000000000E+20
 30
1.000000000000000E+20
  9
$PEXTMAX
 10
-1.000000000000000E+20
 20
-1.000000000000000E+20
 30
-1.000000000000000E+20
  9
$PLIMMIN
 10
0.0
 20
0.0
  9
$PLIMMAX
 10
12.0
 20
9.0
  9
$UNITMODE
 70
     0
  9
$VISRETAIN
 70
     1
  9
$PLINEGEN
 70
     0
  9
$PSLTSCALE
 70
     1
  9
$TREEDEPTH
 70
  3020
  9
$CMLSTYLE
  2
Standard
  9
$CMLJUST
 70
     0
  9
$CMLSCALE
 40
1.0
  9
$PROXYGRAPHICS
 70
     1
  9
$MEASUREMENT
 70
     0
  9
$CELWEIGHT
370
    -1
  9
$ENDCAPS
280
     0
  9
$JOINSTYLE
280
     0
  9
$LWDISPLAY
290
     0
  9
$INSUNITS
 70
     0
  9
$HYPERLINKBASE
  1

  9
$STYLESHEET
  1

  9
$XEDIT
290
     1
  9
$CEPSNTYPE
380
     0
  9
$PSTYLEMODE
290
     1
  9
$FINGERPRINTGUID
  2
{E5D2C7B4-3E08-4E2E-A54C-53BA1A535308}
  9
$VERSIONGUID
  2
{77E8E6A9-7C17-4F2A-B9CE-6B82C95B4AA8}
  9
$EXTNAMES
290
     1
  9
$PSVPSCALE
 40
0.0
  9
$OLESTARTUP
290
     0
  0
ENDSEC
  0
SECTION
  2
CLASSES
  0
CLASS
  1
ACDBDICTIONARYWDFLT
  2
AcDbDictionaryWithDefault
  3
ObjectDBX Classes
 90
        0
280
     0
281
     0
  0
CLASS
  1
MATERIAL
  2
AcDbMaterial
  3
ObjectDBX Classes
 90
     1153
280
     0
281
     0
  0
CLASS
  1
VISUALSTYLE
  2
AcDbVisualStyle
  3
ObjectDBX Classes
 90
     4095
280
     0
281
     0
  0
CLASS
  1
SCALE
  2
AcDbScale
  3
ObjectDBX Classes
 90
     1153
280
     0
281
     0
  0
CLASS
  1
TABLESTYLE
  2
AcDbTableStyle
  3
ObjectDBX Classes
 90
     4095
280
     0
281
     0
  0
CLASS
  1
MLEADERSTYLE
  2
AcDbMLeaderStyle
  3
ACDB_MLEADERSTYLE_CLASS
 90
     4095
280
     0
281
     0
  0
CLASS
  1
AMGSETTINGSOBJ
  2
AmgSettingsObj
  3
"AcadM|Product Description: AutoCAD Mechanical|Company: Autodesk, Inc."
 90
    33792
280
     0
281
     0
  0
CLASS
  1
ACME_DOCUMENT
  2
AcMeDbDoc
  3
AcMeServices
 90
    33792
280
     0
281
     0
  0
CLASS
  1
ACMESCOPE
  2
AcMeScope
  3
AcMeServices
 90
    33792
280
     0
281
     0
  0
CLASS
  1
ACMECOMMANDHISTORY
  2
AcMeCommandHistory
  3
AcMeServices
 90
    33792
280
     0
281
     0
  0
CLASS
  1
ACIMSYSVARMAN
  2
AcImSysVarManager
  3
AcMeServices
 90
    33792
280
     0
281
     0
  0
CLASS
  1
ACIMINTSYSVAR
  2
AcImIntSysVar
  3
AcMeServices
 90
    33792
280
     0
281
     0
  0
CLASS
  1
ACMEDRAWINGMAN
  2
AcMeDrawingMan
  3
AcMeServices
 90
    33792
280
     0
281
     0
  0
CLASS
  1
ACMEVIEW
  2
AcMeView
  3
AcMeServices
 90
    33792
280
     0
281
     0
  0
CLASS
  1
ACDBENTITYCACHE
  2
AcMeEntityCache
  3
AcMeServices
 90
    33792
280
     0
281
     0
  0
CLASS
  1
ACMESTATEMGR
  2
AcMeStateMgr
  3
AcMeServices
 90
    33792
280
     0
281
     0
  0
CLASS
  1
ACGREFMASTER
  2
AcGrefMaster
  3
AcAttribServices
 90
    33792
280
     0
281
     0
  0
CLASS
  1
AM_DRAWING_MGR
  2
AcDmDwgMgr
  3
AcMechDwgViewMgmt
 90
    33792
280
     0
281
     0
  0
CLASS
  1
AM_DWG_DOCUMENT
  2
AcDmDwgDocument
  3
AcMechDwgViewMgmt
 90
    33792
280
     0
281
     0
  0
CLASS
  1
AM_DWG_SHEET
  2
AcDmSheet
  3
AcMechDwgViewMgmt
 90
    33792
280
     0
281
     0
  0
CLASS
  1
AM_VIEWDIMPARMAP
  2
AcDmViewDimParMap
  3
AcMechDwgViewMgmt
 90
    33792
280
     0
281
     0
  0
CLASS
  1
AMDTINTERNALREACTOR
  2
AmdtInternalReactor
  3
AcMeServices
 90
    33792
280
     0
281
     0
  0
CLASS
  1
ACIMREALSYSVAR
  2
AcImRealSysVar
  3
AcMeServices
 90
    33792
280
     0
281
     0
  0
CLASS
  1
AM_DWGMGR_NAME
  2
AcDmDwgMgrName
  3
AcMechDwgViewMgmt
 90
    33792
280
     0
281
     0
  0
CLASS
  1
ACME_DATABASE
  2
AcMeDbDatabase
  3
AcMeServices
 90
    33792
280
     0
281
     0
  0
CLASS
  1
ACRFINSADJUSTERMGR
  2
AcRfInsAdjusterMgr
  3
AcMeServices
 90
    33792
280
     0
281
     0
  0
CLASS
  1
ACGREFACADMASTER
  2
AcGrefacadMaster
  3
AcGrefServices
 90
    33792
280
     0
281
     0
  0
CLASS
  1
AMDTMENUSTATEMGR
  2
AmdtMenuStateMgr
  3
McadcomServices
 90
    33792
280
     0
281
     0
  0
CLASS
  1
AMDTMCOMMENUSTATE
  2
AmdtMcomMenuState
  3
McadcomServices
 90
    33792
280
     0
281
     0
  0
CLASS
  1
AMIMASTER
  2
AmiMaster
  3
AmiServices
 90
    33792
280
     0
281
     0
  0
CLASS
  1
MAPIAMMOUDLE
  2
MApiAmModule
  3
MApiAmServices
 90
    33792
280
     0
281
     0
  0
CLASS
  1
ACIMSTRSYSVAR
  2
AcImStrSysVar
  3
AcMeServices
 90
    33792
280
     0
281
     0
  0
CLASS
  1
AMDTADMENUSTATE
  2
AmdtAdMenuState
  3
DesignerServices
 90
    33792
280
     0
281
     0
  0
CLASS
  1
ADAPPL
  2
AcAdAppl
  3
DesignerServices
 90
    33792
280
     0
281
     0
  0
CLASS
  1
DEPMGR
  2
AcAdDepMgr
  3
DesignerServices
 90
    33792
280
     0
281
     0
  0
CLASS
  1
PARAMMGR
  2
AcAdParamMgr
  3
DesignerServices
 90
    33792
280
     0
281
     0
  0
CLASS
  1
PARAMSCOPE
  2
AcAdParamScope
  3
DesignerServices
 90
    33792
280
     0
281
     0
  0
CLASS
  1
NAMEDAPPL
  2
AcAdNamedAppl
  3
DesignerServices
 90
    33792
280
     0
281
     0
  0
CLASS
  1
AMDTDMMENUSTATE
  2
AmdtDmMenuState
  3
AcMechDwgViewMgmt
 90
    33792
280
     0
281
     0
  0
CLASS
  1
AMDTAMMENUSTATE
  2
AmdtAmMenuState
  3
DesignerAssemblies
 90
    33792
280
     0
281
     0
  0
CLASS
  1
ACAMPROJECT
  2
AcAmProject
  3
DesignerAssemblies
 90
    33792
280
     0
281
     0
  0
CLASS
  1
ACAMGRCOMPDEF
  2
AcAmGrCompDef
  3
DesignerAssemblies
 90
    33792
280
     0
281
     0
  0
CLASS
  1
ACAMCOMPDEF
  2
AcAmCompDef
  3
DesignerAssemblies
 90
    33792
280
     0
281
     0
  0
CLASS
  1
ACAMCOMPDEFMGR
  2
AcAmCompDefMgr
  3
DesignerAssemblies
 90
    33792
280
     0
281
     0
  0
CLASS
  1
AMCONTEXTMGR
  2
AcAmContextMgr
  3
DesignerAssemblies
 90
    33792
280
     0
281
     0
  0
CLASS
  1
ACAMCONTEXTMODELER
  2
AcAmContextModeler
  3
DesignerAssemblies
 90
    33792
280
     0
281
     0
  0
CLASS
  1
ACMDATADICTIONARY
  2
AcmDataDictionary
  3
"AcmSymBB|Product Description: AutoCAD Mechanical|Company: Autodesk, Inc."
 90
    33792
280
     0
281
     0
  0
CLASS
  1
CATALOGSTATE
  2
AcAmCatalogState
  3
DesignerAssemblies
 90
    33792
280
     0
281
     0
  0
CLASS
  1
ACAMGRCOMPDEFSET
  2
AcAmGrCompDefSet
  3
DesignerAssemblies
 90
    33792
280
     0
281
     0
  0
CLASS
  1
AMDTBROWSERDBTAB
  2
AmdtBrowserDbTab
  3
McadcomServices
 90
    33792
280
     0
281
     0
  0
CLASS
  1
CBROWSERAPPOBJECT
  2
CBrowserAppObject
  3
McadcomServices
 90
    33792
280
     0
281
     0
  0
CLASS
  1
DM_PLACEHOLDER
  2
AcDmSelsetPlaceholder
  3
AcMechDwgViewMgmt
 90
    33792
280
     0
281
     0
  0
CLASS
  1
EXACXREFPANELOBJECT
  2
ExAcXREFPanelObject
  3
EXAC_ESW
 90
    33793
280
     0
281
     0
  0
CLASS
  1
NPOCOLLECTION
  2
AcDbImpNonPersistentObjectsCollection
  3
ObjectDBX Classes
 90
    33921
280
     0
281
     0
  0
CLASS
  1
ACMSTANDARDANSI
  2
AcmStandardANSI
  3
"Amdt_StdImp|Product Description: AutoCAD Mechanical|Company: Autodesk, Inc."
 90
    33792
280
     0
281
     0
  0
CLASS
  1
ACMSURFSTANDARDANSI
  2
AcmSurfTextStdANSI
  3
"Amdt_StdImp|Product Description: AutoCAD Mechanical|Company: Autodesk, Inc."
 90
    33792
280
     0
281
     0
  0
CLASS
  1
ACMFCFSTANDARDANSI
  2
AcmFCFStdANSI
  3
"Amdt_StdImp|Product Description: AutoCAD Mechanical|Company: Autodesk, Inc."
 90
    33792
280
     0
281
     0
  0
CLASS
  1
ACMWELDSTANDARDANSI
  2
AcmWeldingStdANSI
  3
"Amdt_StdImp|Product Description: AutoCAD Mechanical|Company: Autodesk, Inc."
 90
    33792
280
     0
281
     0
  0
CLASS
  1
ACMIDSTANDARDANSI
  2
AcmIdStdANSI
  3
"Amdt_StdImp|Product Description: AutoCAD Mechanical|Company: Autodesk, Inc."
 90
    33792
280
     0
281
     0
  0
CLASS
  1
ACMDATUMSTANDARDANSI
  2
AcmDatumStdANSI
  3
"Amdt_StdImp|Product Description: AutoCAD Mechanical|Company: Autodesk, Inc."
 90
    33792
280
     0
281
     0
  0
CLASS
  1
ACMBOMSTANDARDANSI
  2
AcmBOMStdANSI
  3
"Amdt_StdImp|Product Description: AutoCAD Mechanical|Company: Autodesk, Inc."
 90
    33792
280
     0
281
     0
  0
CLASS
  1
ACMDETAILSTANDARDANSI
  2
AmdtDetailSymStdANSI
  3
"Amdt_StdImp|Product Description: AutoCAD Mechanical|Company: Autodesk, Inc."
 90
    33792
280
     0
281
     0
  0
CLASS
  1
ACMSECTIONSTANDARDANSI
  2
AmdtSectionSymStdANSI
  3
"Amdt_StdImp|Product Description: AutoCAD Mechanical|Company: Autodesk, Inc."
 90
    33792
280
     0
281
     0
  0
CLASS
  1
ACMCENTERLINESTANDARDANSI
  2
AmdtCenterLineStdANSI
  3
"Amdt_StdImp|Product Description: AutoCAD Mechanical|Company: Autodesk, Inc."
 90
    33792
280
     0
281
     0
  0
CLASS
  1
ACMTHREADLINESTANDARDANSI
  2
AmdtThreadLineStdANSI
  3
"Amdt_StdImp|Product Description: AutoCAD Mechanical|Company: Autodesk, Inc."
 90
    33792
280
     0
281
     0
  0
CLASS
  1
ACMNOTESTANDARDANSI
  2
AmdtNoteStdANSI
  3
"Amdt_StdImp|Product Description: AutoCAD Mechanical|Company: Autodesk, Inc."
 90
    33792
280
     0
281
     0
  0
CLASS
  1
ACMTAPERSTANDARDANSI
  2
AcmTaperStdANSI
  3
"Amdt_StdImp|Product Description: AutoCAD Mechanical|Company: Autodesk, Inc."
 90
    33792
280
     0
281
     0
  0
CLASS
  1
ACMANOOTATIONVIEWSTANDARDANSI
  2
AmdtAnViewStdANSI
  3
"Amdt_StdImp|Product Description: AutoCAD Mechanical|Company: Autodesk, Inc."
 90
    33792
280
     0
281
     0
  0
CLASS
  1
ACAMGLAYSTD
  2
AcAmgLayStd
  3
"AmgLay|Product Description: AutoCAD Mechanical|Company: Autodesk, Inc."
 90
    33792
280
     0
281
     0
  0
CLASS
  1
ACAMGDIMSTD
  2
AcAmgDimStd
  3
"AmgDim|Product Description: AutoCAD Mechanical|Company: Autodesk, Inc."
 90
    33792
280
     0
281
     0
  0
CLASS
  1
ACAMGHOLECHARTSTDANSI
  2
AcAmgHoleChartStdANSI
  3
AmgDim|Product Description: AutoCAD Mechanical|Company: Autodesk, Inc.
 90
    33792
280
     0
281
     0
  0
CLASS
  1
AMGOBJPROPCFG
  2
AmgObjPropCfg
  3
"AmgLay|Product Description: AutoCAD Mechanical|Company: Autodesk, Inc."
 90
    33793
280
     0
281
     0
  0
CLASS
  1
ACAMGTITLESTD
  2
AcAmgTitleStd
  3
"AmgTitle|Product Description: AutoCAD Mechanical|Company: Autodesk, Inc."
 90
    36863
280
     0
281
     0
  0
CLASS
  1
AMDTNOTETEMPLATEDB
  2
AmdtNoteTemplateDB
  3
AcmSymBB|Product Description: AutoCAD Mechanical|Company: Autodesk, Inc.
 90
    33792
280
     0
281
     0
  0
CLASS
  1
VLO-VL
  2
vlo_VL
  3
VL|AutoLISP based application
 90
      129
280
     0
281
     0
  0
CLASS
  1
ACAMGFILTERDAT
  2
AcAmgFilterDat
  3
"AcadM|Product Description: AutoCAD Mechanical|Company: Autodesk, Inc."
 90
    33792
280
     0
281
     0
  0
CLASS
  1
DICTIONARYVAR
  2
AcDbDictionaryVar
  3
ObjectDBX Classes
 90
        0
280
     0
281
     0
  0
CLASS
  1
CELLSTYLEMAP
  2
AcDbCellStyleMap
  3
ObjectDBX Classes
 90
     1152
280
     0
281
     0
  0
CLASS
  1
SORTENTSTABLE
  2
AcDbSortentsTable
  3
ObjectDBX Classes
 90
        0
280
     0
281
     0
  0
CLASS
  1
AEC_REFEDIT_STATUS_TRACKER
  2
AecDbRefEditStatusTracker
  3
AecArchBase60|Product Desc: Autodesk Architectural Desktop 2007 |Company: Autodesk,Inc. |WEB Address: www.autodesk.com
 90
    32897
280
     0
281
     0
  0
CLASS
  1
ACDBPLACEHOLDER
  2
AcDbPlaceHolder
  3
ObjectDBX Classes
 90
        0
280
     0
281
     0
  0
CLASS
  1
LAYOUT
  2
AcDbLayout
  3
ObjectDBX Classes
 90
        0
280
     0
281
     0
  0
CLASS
  1
ACMSTANDARDISO
  2
AcmStandardISO
  3
"Amdt_StdImp|Product Description: AutoCAD Mechanical|Company: Autodesk, Inc."
 90
    33792
280
     0
281
     0
  0
CLASS
  1
AMDTEDGESTANDARDISO13715
  2
AmdtEdgeStdISO13715
  3
"Amdt_StdImp|Product Description: AutoCAD Mechanical|Company: Autodesk, Inc."
 90
    33792
280
     0
281
     0
  0
CLASS
  1
ACMSURFSTANDARDISO2002
  2
AcmSurfTextStdISO2002
  3
"Amdt_StdImp|Product Description: AutoCAD Mechanical|Company: Autodesk, Inc."
 90
    33792
280
     0
281
     0
  0
CLASS
  1
ACMFCFSTANDARDISO
  2
AcmFCFStdISO
  3
"Amdt_StdImp|Product Description: AutoCAD Mechanical|Company: Autodesk, Inc."
 90
    33792
280
     0
281
     0
  0
CLASS
  1
ACMWELDSTANDARDISO
  2
AcmWeldingStdISO
  3
"Amdt_StdImp|Product Description: AutoCAD Mechanical|Company: Autodesk, Inc."
 90
    33792
280
     0
281
     0
  0
CLASS
  1
ACMIDSTANDARDISO
  2
AcmIdStdISO
  3
"Amdt_StdImp|Product Description: AutoCAD Mechanical|Company: Autodesk, Inc."
 90
    33792
280
     0
281
     0
  0
CLASS
  1
ACMDATUMSTANDARDISO
  2
AcmDatumStdISO
  3
"Amdt_StdImp|Product Description: AutoCAD Mechanical|Company: Autodesk, Inc."
 90
    33792
280
     0
281
     0
  0
CLASS
  1
ACMBOMSTANDARDISO
  2
AcmBOMStdISO
  3
"Amdt_StdImp|Product Description: AutoCAD Mechanical|Company: Autodesk, Inc."
 90
    33792
280
     0
281
     0
  0
CLASS
  1
ACMDETAILSTANDARDISO
  2
AmdtDetailSymStdISO
  3
"Amdt_StdImp|Product Description: AutoCAD Mechanical|Company: Autodesk, Inc."
 90
    33792
280
     0
281
     0
  0
CLASS
  1
ACMSECTIONSTANDARDISO2001
  2
AmdtSectionSymStdISO2001
  3
"Amdt_StdImp|Product Description: AutoCAD Mechanical|Company: Autodesk, Inc."
 90
    33792
280
     0
281
     0
  0
CLASS
  1
ACMCENTERLINESTANDARDISO
  2
AmdtCenterLineStdISO
  3
"Amdt_StdImp|Product Description: AutoCAD Mechanical|Company: Autodesk, Inc."
 90
    33792
280
     0
281
     0
  0
CLASS
  1
ACMTHREADLINESTANDARDISO
  2
AmdtThreadLineStdISO
  3
"Amdt_StdImp|Product Description: AutoCAD Mechanical|Company: Autodesk, Inc."
 90
    33792
280
     0
281
     0
  0
CLASS
  1
ACMNOTESTANDARDISO
  2
AmdtNoteStdISO
  3
"Amdt_StdImp|Product Description: AutoCAD Mechanical|Company: Autodesk, Inc."
 90
    33792
280
     0
281
     0
  0
CLASS
  1
ACMTAPERSTANDARDISO
  2
AcmTaperStdISO
  3
"Amdt_StdImp|Product Description: AutoCAD Mechanical|Company: Autodesk, Inc."
 90
    33792
280
     0
281
     0
  0
CLASS
  1
ACMANOOTATIONVIEWSTANDARDISO
  2
AmdtAnViewStdISO
  3
"Amdt_StdImp|Product Description: AutoCAD Mechanical|Company: Autodesk, Inc."
 90
    33792
280
     0
281
     0
  0
CLASS
  1
ACAMGHOLECHARTSTDISO
  2
AcAmgHoleChartStdISO
  3
AmgDim|Product Description: AutoCAD Mechanical|Company: Autodesk, Inc.
 90
    33792
280
     0
281
     0
  0
CLASS
  1
DIMASSOC
  2
AcDbDimAssoc
  3
"AcDbDimAssoc|Product Desc:     AcDim ARX App For Dimension|Company:          Autodesk, Inc.|WEB Address:      www.autodesk.com"
 90
        0
280
     0
281
     0
  0
ENDSEC
  0
SECTION
  2
TABLES
  0
TABLE
  2
VPORT
  5
42BF
330
0
100
AcDbSymbolTable
 70
     1
  0
VPORT
  5
4331
330
42BF
100
AcDbSymbolTableRecord
100
AcDbViewportTableRecord
  2
*ACTIVE
 70
     0
 10
0.0
 20
0.0
 11
1.0
 21
1.0
 12
854.3981251615351
 22
141.9339922687883
 13
0.0
 23
0.0
 14
0.5
 24
0.5
 15
0.5
 25
0.5
 16
0.0
 26
0.0
 36
1.0
 17
0.0
 27
0.0
 37
0.0
 40
53.42938536049115
 41
1.622972972972973
 42
50.0
 43
0.0
 44
0.0
 50
0.0
 51
0.0
 71
     0
 72
  1000
 73
     1
 74
     3
 75
     0
 76
     0
 77
     0
 78
     0
281
     0
 65
     0
110
0.0
120
0.0
130
0.0
111
1.0
121
0.0
131
0.0
112
0.0
122
1.0
132
0.0
 79
     0
146
0.0
  0
ENDTAB
  0
TABLE
  2
LTYPE
  5
42BC
330
0
100
AcDbSymbolTable
 70
    19
  0
LTYPE
  5
431C
330
42BC
100
AcDbSymbolTableRecord
100
AcDbLinetypeTableRecord
  2
ByBlock
 70
     0
  3

 72
    65
 73
     0
 40
0.0
  0
LTYPE
  5
431D
330
42BC
100
AcDbSymbolTableRecord
100
AcDbLinetypeTableRecord
  2
ByLayer
 70
     0
  3

 72
    65
 73
     0
 40
0.0
  0
LTYPE
  5
431E
330
42BC
100
AcDbSymbolTableRecord
100
AcDbLinetypeTableRecord
  2
CONTINUOUS
 70
     0
  3
Solid line
 72
    65
 73
     0
 40
0.0
  0
LTYPE
  5
4332
330
42BC
100
AcDbSymbolTableRecord
100
AcDbLinetypeTableRecord
  2
CENTER2
 70
     0
  3
Center (.5x) ___ _ ___ _ ___ _ ___ _ ___ _ ___
 72
    65
 73
     4
 40
28.575
 49
19.05
 74
     0
 49
-3.174999999999998
 74
     0
 49
3.174999999999998
 74
     0
 49
-3.174999999999998
 74
     0
  0
LTYPE
  5
4333
330
42BC
100
AcDbSymbolTableRecord
100
AcDbLinetypeTableRecord
  2
HIDDEN2
 70
     0
  3
Hidden (.5x) _ _ _ _ _ _ _ _ _ _ _ _ _ _ _ _ _
 72
    65
 73
     2
 40
4.762499999999998
 49
3.174999999999998
 74
     0
 49
-1.587499999999999
 74
     0
  0
LTYPE
  5
4334
330
42BC
100
AcDbSymbolTableRecord
100
AcDbLinetypeTableRecord
  2
CENTER
 70
     0
  3
____ _ ____ _ ____ _ ____ _ ____ _ ____ _ ____
 72
    65
 73
     4
 40
0.6
 49
0.375
 74
     0
 49
-0.075
 74
     0
 49
0.075
 74
     0
 49
-0.075
 74
     0
  0
LTYPE
  5
4335
330
42BC
100
AcDbSymbolTableRecord
100
AcDbLinetypeTableRecord
  2
HIDDEN
 70
     0
  3
Hidden __ __ __ __ __ __ __ __ __ __ __ __ __ __
 72
    65
 73
     2
 40
0.375
 49
0.25
 74
     0
 49
-0.125
 74
     0
  0
LTYPE
  5
4336
330
42BC
100
AcDbSymbolTableRecord
100
AcDbLinetypeTableRecord
  2
PHANTOM2
 70
     0
  3
Phantom (.5x) ___ _ _ ___ _ _ ___ _ _ ___ _ _
 72
    65
 73
     6
 40
1.25
 49
0.625
 74
     0
 49
-0.125
 74
     0
 49
0.125
 74
     0
 49
-0.125
 74
     0
 49
0.125
 74
     0
 49
-0.125
 74
     0
  0
LTYPE
  5
433A
330
42BC
100
AcDbSymbolTableRecord
100
AcDbLinetypeTableRecord
  2
AMCONSTR
 70
     0
  3
_______________________
 72
    65
 73
     2
 40
9999.0
 49
9999.0
 74
     0
 49
0.0
 74
     0
  0
LTYPE
  5
433E
330
42BC
100
AcDbSymbolTableRecord
100
AcDbLinetypeTableRecord
  2
AMZIGZAG2
 70
     0
  3
/\/-/\/-/\/-/\/-/\/-/\/
 72
    65
 73
     2
 40
0.4401
 49
0.0001
 74
     0
 49
-0.4400000000000003
 74
     0
  0
LTYPE
  5
433F
330
42BC
100
AcDbSymbolTableRecord
100
AcDbLinetypeTableRecord
  2
ACANSTGB
 70
     0
  3
__ . . __ . .
 72
    65
 73
     6
 40
0.35433070866
 49
0.15748031496
 74
     0
 49
-0.03937007874
 74
     0
 49
0.03937007874
 74
     0
 49
-0.03937007874
 74
     0
 49
0.03937007874
 74
     0
 49
-0.03937007874
 74
     0
  0
LTYPE
  5
4340
330
42BC
100
AcDbSymbolTableRecord
100
AcDbLinetypeTableRecord
  2
ACANSTGL
 70
     0
  3
_ _ _ _ _
 72
    65
 73
     2
 40
0.11811023622
 49
0.07874015748
 74
     0
 49
-0.03937007874
 74
     0
  0
LTYPE
  5
4AA4
330
42BC
100
AcDbSymbolTableRecord
100
AcDbLinetypeTableRecord
  2
AM_ISO02W050
 70
     0
  3
__ __ __ __ __ __ __ __ __ __ __ __ __ __ __
 72
    65
 73
     2
 40
7.5
 49
6.0
 74
     0
 49
-1.5
 74
     0
  0
LTYPE
  5
4AA5
330
42BC
100
AcDbSymbolTableRecord
100
AcDbLinetypeTableRecord
  2
AM_ISO08W050
 70
     0
  3
____ . ____ . ____ . ____ . ____ . ____ . ____
 72
    65
 73
     4
 40
18.0
 49
12.0
 74
     0
 49
-1.5
 74
     0
 49
3.0
 74
     0
 49
-1.5
 74
     0
  0
LTYPE
  5
4AA6
330
42BC
100
AcDbSymbolTableRecord
100
AcDbLinetypeTableRecord
  2
AM_ISO09W050
 70
     0
  3
_____ . . _____ . . _____ . . ____ .. ____
 72
    65
 73
     6
 40
22.5
 49
12.0
 74
     0
 49
-1.5
 74
     0
 49
3.0
 74
     0
 49
-1.5
 74
     0
 49
3.0
 74
     0
 49
-1.5
 74
     0
  0
LTYPE
  5
4AA7
330
42BC
100
AcDbSymbolTableRecord
100
AcDbLinetypeTableRecord
  2
AM_ISO08W050x2
 70
     0
  3
__ . __ . __ . __ . __ . __
 72
    65
 73
     4
 40
9.0
 49
6.0
 74
     0
 49
-0.75
 74
     0
 49
1.5
 74
     0
 49
-0.75
 74
     0
  0
LTYPE
  5
4AA8
330
42BC
100
AcDbSymbolTableRecord
100
AcDbLinetypeTableRecord
  2
AM_ISO02W050x2
 70
     0
  3
 _ _ _ _ _ _ _ _ _ _ _ _
 72
    65
 73
     2
 40
3.75
 49
3.0
 74
     0
 49
-0.75
 74
     0
  0
LTYPE
  5
4AAB
330
42BC
100
AcDbSymbolTableRecord
100
AcDbLinetypeTableRecord
  2
Amzigzag
 70
     0
  3
/\/-/\/-/\/-/\/-/\/-/\/
 72
    65
 73
     2
 40
11.0001
 49
0.0001
 74
     4
 75
   136
340
4AAA
 46
0.04
 50
0.0
 44
0.0
 45
0.0
 49
-11.0
 74
     0
  0
LTYPE
  5
4DCE
330
42BC
100
AcDbSymbolTableRecord
100
AcDbLinetypeTableRecord
  2
ACISOWELD
 70
     0
  3
_ _ _ _ _
 72
    65
 73
     2
 40
2.0
 49
2.0
 74
     0
 49
-1.0
 74
     0
  0
LTYPE
  5
4DCF
330
42BC
100
AcDbSymbolTableRecord
100
AcDbLinetypeTableRecord
  2
ACISOTGB
 70
     0
  3
__ . . __ . .
 72
    65
 73
     6
 40
9.0
 49
4.0
 74
     0
 49
-1.0
 74
     0
 49
1.0
 74
     0
 49
-1.0
 74
     0
 49
1.0
 74
     0
 49
-1.0
 74
     0
  0
LTYPE
  5
4DD0
330
42BC
100
AcDbSymbolTableRecord
100
AcDbLinetypeTableRecord
  2
ACISOTGL
 70
     0
  3
_ _ _ _ _
 72
    65
 73
     2
 40
3.0
 49
2.0
 74
     0
 49
-1.0
 74
     0
  0
ENDTAB
  0
TABLE
  2
LAYER
  5
42B9
102
{ACAD_XDICTIONARY
360
46A5
102
}
330
0
100
AcDbSymbolTable
 70
     8
  0
LAYER
  5
4316
102
{ACAD_XDICTIONARY
360
44F0
102
}
330
42B9
100
AcDbSymbolTableRecord
100
AcDbLayerTableRecord
  2
0
 70
     0
 62
     7
  6
CONTINUOUS
370
    20
390
42C6
  0
LAYER
  5
4341
102
{ACAD_XDICTIONARY
360
44F2
102
}
330
42B9
100
AcDbSymbolTableRecord
100
AcDbLayerTableRecord
  2
中心线
 70
     0
 62
     1
  6
CENTER2
370
    13
390
42C6
  0
LAYER
  5
4342
102
{ACAD_XDICTIONARY
360
44F4
102
}
330
42B9
100
AcDbSymbolTableRecord
100
AcDbLayerTableRecord
  2
虚线
 70
     0
 62
     4
  6
HIDDEN2
370
    13
390
42C6
  0
LAYER
  5
4343
330
42B9
100
AcDbSymbolTableRecord
100
AcDbLayerTableRecord
  2
DEFPOINTS
 70
     0
 62
     7
  6
CONTINUOUS
290
     0
370
    -3
390
42C6
  0
LAYER
  5
4344
102
{ACAD_XDICTIONARY
360
44F6
102
}
330
42B9
100
AcDbSymbolTableRecord
100
AcDbLayerTableRecord
  2
标注
 70
     0
 62
    80
  6
CONTINUOUS
370
    13
390
42C6
  0
LAYER
  5
4345
102
{ACAD_XDICTIONARY
360
44F8
102
}
330
42B9
100
AcDbSymbolTableRecord
100
AcDbLayerTableRecord
  2
截面层
 70
     0
 62
     6
  6
CONTINUOUS
370
    20
390
42C6
  0
LAYER
  5
4347
102
{ACAD_XDICTIONARY
360
44FA
102
}
330
42B9
100
AcDbSymbolTableRecord
100
AcDbLayerTableRecord
  2
细实线
 70
     0
 62
     7
  6
CONTINUOUS
370
    15
390
42C6
  0
LAYER
  5
5369
102
{ACAD_XDICTIONARY
360
536A
102
}
330
42B9
100
AcDbSymbolTableRecord
100
AcDbLayerTableRecord
  2
剖面线
 70
     0
 62
   200
  6
CONTINUOUS
370
    20
390
42C6
  0
ENDTAB
  0
TABLE
  2
STYLE
  5
42BA
330
0
100
AcDbSymbolTable
 70
     6
  0
STYLE
  5
4317
330
42BA
100
AcDbSymbolTableRecord
100
AcDbTextStyleTableRecord
  2
STANDARD
 70
     0
 40
0.0
 41
1.0
 50
0.0
 71
     0
 42
0.2
  3
SimSun.ttf
  4

1001
ACAD
1000
SimSun
1071
    34306
  0
STYLE
  5
434B
330
42BA
100
AcDbSymbolTableRecord
100
AcDbTextStyleTableRecord
  2
ACANSGDT
 70
     0
 40
0.0
 41
1.0
 50
0.0
 71
     0
 42
0.2
  3
amgdt.shx
  4

  0
STYLE
  5
469E
330
42BA
100
AcDbSymbolTableRecord
100
AcDbTextStyleTableRecord
  2
Roman
 70
     0
 40
0.0
 41
1.0
 50
0.0
 71
     0
 42
0.065
  3
arial_4.ttf
  4

1001
ACAD
1000
Arial
1071
       34
  0
STYLE
  5
4AAA
330
42BA
100
AcDbSymbolTableRecord
100
AcDbTextStyleTableRecord
  2

 70
     1
 40
0.0
 41
1.0
 50
0.0
 71
     0
 42
0.2
  3
genltshp.shx
  4

  0
STYLE
  5
4AAD
330
42BA
100
AcDbSymbolTableRecord
100
AcDbTextStyleTableRecord
  2
ACANSTS
 70
     0
 40
1.0
 41
1.0
 50
0.0
 71
     0
 42
0.2
  3
romans.shx
  4
gbcbig.shx
  0
STYLE
  5
4DD1
330
42BA
100
AcDbSymbolTableRecord
100
AcDbTextStyleTableRecord
  2
ACISOGDT
 70
     0
 40
0.0
 41
1.0
 50
0.0
 71
     0
 42
2.5
  3
amgdt.shx
  4

  0
ENDTAB
  0
TABLE
  2
VIEW
  5
42BD
330
0
100
AcDbSymbolTable
 70
     0
  0
ENDTAB
  0
TABLE
  2
UCS
  5
42BE
330
0
100
AcDbSymbolTable
 70
     0
  0
ENDTAB
  0
TABLE
  2
APPID
  5
42C0
330
0
100
AcDbSymbolTable
 70
    31
  0
APPID
  5
4318
330
42C0
100
AcDbSymbolTableRecord
100
AcDbRegAppTableRecord
  2
ACAD
 70
     0
  0
APPID
  5
431F
330
42C0
100
AcDbSymbolTableRecord
100
AcDbRegAppTableRecord
  2
ACADANNOTATIVE
 70
     0
  0
APPID
  5
434C
330
42C0
100
AcDbSymbolTableRecord
100
AcDbRegAppTableRecord
  2
ACAECLAYERSTANDARD
 70
     0
  0
APPID
  5
434D
330
42C0
100
AcDbSymbolTableRecord
100
AcDbRegAppTableRecord
  2
ACAD_DSTYLE_DIMEXT_LENGTH
 70
     0
  0
APPID
  5
434E
330
42C0
100
AcDbSymbolTableRecord
100
AcDbRegAppTableRecord
  2
ACAD_DSTYLE_DIMEXT_ENABLED
 70
     0
  0
APPID
  5
434F
330
42C0
100
AcDbSymbolTableRecord
100
AcDbRegAppTableRecord
  2
ACAD_DSTYLE_DIMJOGGED_JOGA
 70
     0
  0
APPID
  5
4350
330
42C0
100
AcDbSymbolTableRecord
100
AcDbRegAppTableRecord
  2
ACAD_DSTYLE_DIMARC_LENGTH_
 70
     0
  0
APPID
  5
4351
330
42C0
100
AcDbSymbolTableRecord
100
AcDbRegAppTableRecord
  2
ACAD_PSEXT
 70
     0
  0
APPID
  5
4352
330
42C0
100
AcDbSymbolTableRecord
100
AcDbRegAppTableRecord
  2
ACAD_DSTYLE_DIMJAG
 70
     0
  0
APPID
  5
4353
330
42C0
100
AcDbSymbolTableRecord
100
AcDbRegAppTableRecord
  2
ACAD_DSTYLE_DIMTALN
 70
     0
  0
APPID
  5
4354
330
42C0
100
AcDbSymbolTableRecord
100
AcDbRegAppTableRecord
  2
ACAD_MLEADERVER
 70
     0
  0
APPID
  5
4355
330
42C0
100
AcDbSymbolTableRecord
100
AcDbRegAppTableRecord
  2
ACAD_DSTYLE_DIMRADIAL_EXTENSION
 70
     0
  0
APPID
  5
4356
330
42C0
100
AcDbSymbolTableRecord
100
AcDbRegAppTableRecord
  2
ACAD_EXEMPT_FROM_CAD_STANDARDS
 70
     0
  0
APPID
  5
4357
330
42C0
100
AcDbSymbolTableRecord
100
AcDbRegAppTableRecord
  2
MCAD_NO_VIS
 70
     0
  0
APPID
  5
4358
330
42C0
100
AcDbSymbolTableRecord
100
AcDbRegAppTableRecord
  2
ACAD_TEMP_GRAPHIC
 70
     0
  0
APPID
  5
4359
330
42C0
100
AcDbSymbolTableRecord
100
AcDbRegAppTableRecord
  2
AD_DRAW
 70
     0
  0
APPID
  5
435A
330
42C0
100
AcDbSymbolTableRecord
100
AcDbRegAppTableRecord
  2
ACATTRIBSERVICES
 70
     0
  0
APPID
  5
435B
330
42C0
100
AcDbSymbolTableRecord
100
AcDbRegAppTableRecord
  2
DESIGNERASSEMBLIES
 70
     0
  0
APPID
  5
435C
330
42C0
100
AcDbSymbolTableRecord
100
AcDbRegAppTableRecord
  2
ACADM_DIM_EDIT
 70
     0
  0
APPID
  5
435D
330
42C0
100
AcDbSymbolTableRecord
100
AcDbRegAppTableRecord
  2
AMDT_DM_ADJ
 70
     0
  0
APPID
  5
435E
330
42C0
100
AcDbSymbolTableRecord
100
AcDbRegAppTableRecord
  2
ACAD_DSTYLE_DIMBREAK
 70
     0
  0
APPID
  5
435F
330
42C0
100
AcDbSymbolTableRecord
100
AcDbRegAppTableRecord
  2
ACAD_DSTYLE_DIMINSPECT
 70
     0
  0
APPID
  5
4360
330
42C0
100
AcDbSymbolTableRecord
100
AcDbRegAppTableRecord
  2
GENIUS_GENODEF_13
 70
     0
  0
APPID
  5
4361
330
42C0
100
AcDbSymbolTableRecord
100
AcDbRegAppTableRecord
  2
GENIUS_GENOBJ-N-FIL_13
 70
     0
  0
APPID
  5
4537
330
42C0
100
AcDbSymbolTableRecord
100
AcDbRegAppTableRecord
  2
AcadAnnoPO
 70
     0
  0
APPID
  5
46A4
330
42C0
100
AcDbSymbolTableRecord
100
AcDbRegAppTableRecord
  2
ACAD_DSTYLE_DIMJOGGED_JOGANGLE_SYMBOL
 70
     0
  0
APPID
  5
4A30
330
42C0
100
AcDbSymbolTableRecord
100
AcDbRegAppTableRecord
  2
ACAD_DSTYLE_DIM_LINETYPE
 70
     0
  0
APPID
  5
4A31
330
42C0
100
AcDbSymbolTableRecord
100
AcDbRegAppTableRecord
  2
ACAD_DSTYLE_DIM_EXT1_LINETYPE
 70
     0
  0
APPID
  5
4A32
330
42C0
100
AcDbSymbolTableRecord
100
AcDbRegAppTableRecord
  2
ACAD_DSTYLE_DIM_EXT2_LINETYPE
 70
     0
  0
APPID
  5
4DDD
330
42C0
100
AcDbSymbolTableRecord
100
AcDbRegAppTableRecord
  2
AcDbBlockRepETag
 70
     0
  0
APPID
  5
52AD
330
42C0
100
AcDbSymbolTableRecord
100
AcDbRegAppTableRecord
  2
ACAD_DSTYLE_DIMARC_LENGTH_SYMBOL
 70
     0
  0
ENDTAB
  0
TABLE
  2
DIMSTYLE
  5
42C1
330
0
100
AcDbSymbolTable
 70
    27
100
AcDbDimStyleTable
 71
     2
340
4364
340
4319
  0
DIMSTYLE
105
4319
330
42C1
100
AcDbSymbolTableRecord
100
AcDbDimStyleTableRecord
  2
STANDARD
 70
     0
274
     1
279
     2
284
     8
285
     8
286
     8
340
4317
  0
DIMSTYLE
105
4364
102
{ACAD_REACTORS
330
5B8F
330
5B8C
330
5B95
330
5B92
330
5B98
102
}
330
42C1
100
AcDbSymbolTableRecord
100
AcDbDimStyleTableRecord
  2
副本STANDARD
 70
     0
  3
"
  4
"
 41
0.65
 42
0.88
 43
0.015
 44
0.32
 73
     0
 74
     0
 78
     8
140
0.65
143
0.03937
147
0.2
171
     1
172
     1
176
     3
177
     3
178
     3
271
     3
272
     3
274
     1
276
     2
277
     5
279
     2
284
     8
285
     8
286
     8
340
4317
371
    13
372
    13
1001
ACAD_DSTYLE_DIMJAG
1070
   388
1040
1.5
1001
ACAD_DSTYLE_DIMTALN
1070
   392
1070
     0
1001
ACAD_DSTYLE_DIM_LINETYPE
1070
   380
1005
431E
1001
ACAD_DSTYLE_DIM_EXT1_LINETYPE
1070
   381
1005
431E
1001
ACAD_DSTYLE_DIM_EXT2_LINETYPE
1070
   382
1005
431E
  0
DIMSTYLE
105
4365
330
42C1
100
AcDbSymbolTableRecord
100
AcDbDimStyleTableRecord
  2
AM_ANSI
 70
     0
  4
mm
 41
0.12
 42
0.05
 43
0.5
 44
0.1
 47
0.1
 48
0.1
 78
     7
140
0.12
141
0.0
146
0.71
147
0.06
176
   256
177
   256
178
     2
274
     1
279
     2
284
     8
285
     8
286
     8
340
4317
  0
DIMSTYLE
105
4366
330
42C1
100
AcDbSymbolTableRecord
100
AcDbDimStyleTableRecord
  2
AM_ANSI$3
 70
     0
  4
mm
 41
0.12
 42
0.05
 43
0.5
 44
0.1
 47
0.1
 48
0.1
 78
     7
140
0.12
141
0.0
146
0.71
147
0.06
176
   256
177
   256
178
     2
274
     1
279
     2
284
     8
285
     8
286
     8
340
4317
  0
DIMSTYLE
105
4367
330
42C1
100
AcDbSymbolTableRecord
100
AcDbDimStyleTableRecord
  2
AM_ANSI$4
 70
     0
  4
mm
 41
0.12
 42
0.05
 43
0.5
 44
0.1
 47
0.1
 48
0.1
 78
     7
140
0.12
141
0.0
146
0.71
147
0.06
176
   256
177
   256
178
     2
274
     1
279
     2
284
     8
285
     8
286
     8
340
4317
  0
DIMSTYLE
105
4368
330
42C1
100
AcDbSymbolTableRecord
100
AcDbDimStyleTableRecord
  2
AM_ANSI$7
 70
     0
  4
mm
 41
0.12
 42
0.05
 43
0.5
 44
0.1
 47
0.1
 48
0.1
 78
     7
140
0.12
141
0.0
146
0.71
147
0.06
176
   256
177
   256
178
     2
274
     1
279
     2
284
     8
285
     8
286
     8
340
4317
  0
DIMSTYLE
105
4369
330
42C1
100
AcDbSymbolTableRecord
100
AcDbDimStyleTableRecord
  2
AM_ANSI$SF
 70
     0
  4
mm
 41
0.12
 42
0.05
 43
0.5
 44
0.1
 47
0.1
 48
0.1
 75
     1
 76
     1
 78
     7
140
0.12
141
0.0
146
0.71
147
0.06
176
   256
177
   256
178
     2
274
     1
279
     2
284
     8
285
     8
286
     8
340
4317
  0
DIMSTYLE
105
436A
330
42C1
100
AcDbSymbolTableRecord
100
AcDbDimStyleTableRecord
  2
AM_ANSI$SH
 70
     0
  4
mm
 41
0.12
 42
0.05
 43
0.5
 44
0.1
 47
0.1
 48
0.1
 75
     1
 76
     1
 78
     7
140
0.12
141
0.0
146
0.71
147
0.06
173
     1
176
   256
177
   256
178
     2
274
     1
279
     2
284
     8
285
     8
286
     8
340
4317
  0
DIMSTYLE
105
4B21
330
42C1
100
AcDbSymbolTableRecord
100
AcDbDimStyleTableRecord
  2
副本Standard2
 70
     0
  4
"
 41
14.0
 42
22.0
 44
8.0
 73
     0
 74
     0
 78
     8
 79
     2
140
14.0
143
0.03937
147
5.0
170
     1
171
     3
172
     1
176
   256
177
   256
178
   256
179
     1
271
     1
272
     1
273
     7
274
     3
278
    44
340
4317
1001
ACAD_DSTYLE_DIMBREAK
1070
   391
1040
0.125
1001
ACAD_DSTYLE_DIMJAG
1070
   388
1040
1.5
1001
ACAD_DSTYLE_DIMTALN
1070
   392
1070
     0
  0
DIMSTYLE
105
4B22
330
42C1
100
AcDbSymbolTableRecord
100
AcDbDimStyleTableRecord
  2
毫米英寸
 70
     0
  3
mm
  4
"
 41
16.0
 42
8.0
 43
3.75
 44
1.25
 73
     0
 74
     0
 77
     1
 78
     8
140
18.0
141
15.0
143
0.03937007874016
147
3.0
170
     1
171
     3
172
     1
176
     3
177
     3
178
     3
271
     0
272
     0
273
     7
274
     3
276
     2
278
    44
283
     0
284
     8
340
4317
371
     5
372
     5
1001
ACAD_DSTYLE_DIMBREAK
1070
   391
1040
0.125
1001
ACAD_DSTYLE_DIMJAG
1070
   388
1040
1.5
1001
ACAD_DSTYLE_DIMTALN
1070
   392
1070
     0
1001
ACAD_DSTYLE_DIMEXT_LENGTH
1070
   378
1040
1.25
1001
ACAD_DSTYLE_DIM_LINETYPE
1070
   380
1005
431E
1001
ACAD_DSTYLE_DIM_EXT1_LINETYPE
1070
   381
1005
431E
1001
ACAD_DSTYLE_DIM_EXT2_LINETYPE
1070
   382
1005
431E
  0
DIMSTYLE
105
4DD2
330
42C1
100
AcDbSymbolTableRecord
100
AcDbDimStyleTableRecord
  2
ISO-25
 70
     0
 41
15.0
 42
0.0
 43
3.75
 44
1.25
 73
     0
 74
     0
 78
     8
140
18.0
141
2.5
143
0.03937007874016
147
3.0
171
     4
172
     1
176
     3
177
     3
178
     3
271
     1
272
     1
273
     7
274
     4
278
    44
283
     0
284
     8
340
469E
371
    13
372
    13
1001
ACAD_DSTYLE_DIMJAG
1070
   388
1040
1.5
1001
ACAD_DSTYLE_DIMTALN
1070
   392
1070
     0
1001
ACAD_DSTYLE_DIMEXT_LENGTH
1070
   378
1040
1.25
1001
ACAD_DSTYLE_DIMJOGGED_JOGANGLE_SYMBOL
1070
   384
1040
1.570796326794896
1001
ACAD_DSTYLE_DIM_LINETYPE
1070
   380
1005
431E
1001
ACAD_DSTYLE_DIM_EXT1_LINETYPE
1070
   381
1005
431E
1001
ACAD_DSTYLE_DIM_EXT2_LINETYPE
1070
   382
1005
431E
  0
DIMSTYLE
105
4DD3
330
42C1
100
AcDbSymbolTableRecord
100
AcDbDimStyleTableRecord
  2
01
 70
     0
 41
10.0
 42
0.625
 43
3.75
 44
1.25
 73
     0
 74
     0
 77
     1
 78
     8
140
15.0
141
2.5
143
0.03937007874016
147
3.0
171
     3
172
     1
176
     6
177
     6
271
     2
272
     2
274
     3
278
    44
283
     0
284
     8
340
4317
371
     5
372
     5
1001
ACAD_DSTYLE_DIMEXT_LENGTH
1070
   378
1040
1.25
1001
ACAD_DSTYLE_DIMJOGGED_JOGANGLE_SYMBOL
1070
   384
1040
1.570796326794896
  0
DIMSTYLE
105
4DD4
330
42C1
100
AcDbSymbolTableRecord
100
AcDbDimStyleTableRecord
  2
副本01
 70
     0
 41
10.0
 42
2.0
 43
3.75
 44
2.0
 73
     0
 77
     1
 78
     9
140
15.0
141
0.5
143
0.03937007874
147
-3.0
172
     1
176
     6
177
     6
178
   256
271
     0
272
     0
283
     0
284
     8
285
    12
340
4317
371
     5
372
     5
1001
ACAD_DSTYLE_DIMEXT_LENGTH
1070
   378
1040
1.25
1001
ACAD_DSTYLE_DIMJOGGED_JOGANGLE_SYMBOL
1070
   384
1040
1.570796326794896
  0
DIMSTYLE
105
4DD5
330
42C1
100
AcDbSymbolTableRecord
100
AcDbDimStyleTableRecord
  2
AM_ISO
 70
     0
  4
"
 41
3.5
 42
1.0
 43
10.0
 44
1.0
 47
0.1
 48
0.1
 73
     0
 74
     0
 77
     1
 78
     8
 79
     2
140
3.5
141
0.0
143
0.0393701
146
0.71
147
1.5
172
     1
176
   256
177
   256
178
     2
271
     2
272
     3
274
     4
283
     0
284
     8
340
4317
371
    -1
372
    -1
1001
ACAD_DSTYLE_DIMJAG
1070
   388
1040
1.5
1001
ACAD_DSTYLE_DIMBREAK
1070
   391
1040
3.75
1001
ACAD_DSTYLE_DIMARC_LENGTH_SYMBOL
1070
   379
1070
     1
1001
ACAD_DSTYLE_DIM_LINETYPE
1070
   380
1005
431C
1001
ACAD_DSTYLE_DIM_EXT1_LINETYPE
1070
   381
1005
431C
1001
ACAD_DSTYLE_DIM_EXT2_LINETYPE
1070
   382
1005
431C
  0
DIMSTYLE
105
4DD6
330
42C1
100
AcDbSymbolTableRecord
100
AcDbDimStyleTableRecord
  2
AM_ISO$3
 70
     0
  4
"
 41
3.5
 42
1.0
 43
10.0
 44
1.0
 47
0.1
 48
0.1
 73
     0
 77
     1
 78
     8
 79
     2
140
3.5
141
0.0
143
0.0393701
146
0.71
147
1.5
176
   256
177
   256
178
     2
271
     2
272
     3
274
     4
283
     0
284
     8
288
     1
289
     0
340
4317
371
    -1
372
    -1
1001
ACAD_DSTYLE_DIMBREAK
1070
   391
1040
3.75
1001
ACAD_DSTYLE_DIMJAG
1070
   388
1040
1.5
1001
ACAD_DSTYLE_DIMARC_LENGTH_SYMBOL
1070
   379
1070
     1
1001
ACAD_DSTYLE_DIM_LINETYPE
1070
   380
1005
431C
1001
ACAD_DSTYLE_DIM_EXT1_LINETYPE
1070
   381
1005
431C
1001
ACAD_DSTYLE_DIM_EXT2_LINETYPE
1070
   382
1005
431C
  0
DIMSTYLE
105
4DD7
330
42C1
100
AcDbSymbolTableRecord
100
AcDbDimStyleTableRecord
  2
AM_ISO$4
 70
     0
  4
"
 41
3.5
 42
1.0
 43
10.0
 44
1.0
 47
0.1
 48
0.1
 73
     0
 77
     1
 78
     8
 79
     2
140
3.5
141
0.0
143
0.0393701
146
0.71
147
1.5
176
   256
177
   256
178
     2
271
     2
272
     3
274
     4
283
     0
284
     8
288
     1
289
     0
340
4317
371
    -1
372
    -1
1001
ACAD_DSTYLE_DIMBREAK
1070
   391
1040
3.75
1001
ACAD_DSTYLE_DIMJAG
1070
   388
1040
1.5
1001
ACAD_DSTYLE_DIMARC_LENGTH_SYMBOL
1070
   379
1070
     1
1001
ACAD_DSTYLE_DIM_LINETYPE
1070
   380
1005
431C
1001
ACAD_DSTYLE_DIM_EXT1_LINETYPE
1070
   381
1005
431C
1001
ACAD_DSTYLE_DIM_EXT2_LINETYPE
1070
   382
1005
431C
  0
DIMSTYLE
105
4DD8
330
42C1
100
AcDbSymbolTableRecord
100
AcDbDimStyleTableRecord
  2
AM_ISO$6
 70
     0
  4
"
 41
3.5
 42
1.0
 43
10.0
 44
1.0
 47
0.1
 48
0.1
 73
     0
 74
     0
 78
     8
 79
     2
140
3.5
141
0.0
143
0.0393701
146
0.71
147
1.5
172
     1
176
   256
177
   256
178
     2
271
     2
272
     3
274
     4
283
     0
284
     8
340
4317
371
    -1
372
    -1
1001
ACAD_DSTYLE_DIMBREAK
1070
   391
1040
3.75
1001
ACAD_DSTYLE_DIMJAG
1070
   388
1040
1.5
1001
ACAD_DSTYLE_DIMARC_LENGTH_SYMBOL
1070
   379
1070
     1
1001
ACAD_DSTYLE_DIM_LINETYPE
1070
   380
1005
431C
1001
ACAD_DSTYLE_DIM_EXT1_LINETYPE
1070
   381
1005
431C
1001
ACAD_DSTYLE_DIM_EXT2_LINETYPE
1070
   382
1005
431C
  0
DIMSTYLE
105
4DD9
330
42C1
100
AcDbSymbolTableRecord
100
AcDbDimStyleTableRecord
  2
AM_ISO$7
 70
     0
  4
"
 41
3.5
 42
1.0
 43
10.0
 44
1.0
 47
0.1
 48
0.1
 73
     0
 74
     0
 77
     1
 78
     8
 79
     2
140
3.5
141
0.0
143
0.0393701
146
0.71
147
1.5
172
     1
176
   256
177
   256
178
     2
271
     2
272
     3
274
     4
283
     0
284
     8
340
4317
371
    -1
372
    -1
1001
ACAD_DSTYLE_DIMBREAK
1070
   391
1040
3.75
1001
ACAD_DSTYLE_DIMJAG
1070
   388
1040
1.5
1001
ACAD_DSTYLE_DIMARC_LENGTH_SYMBOL
1070
   379
1070
     1
1001
ACAD_DSTYLE_DIM_LINETYPE
1070
   380
1005
431C
1001
ACAD_DSTYLE_DIM_EXT1_LINETYPE
1070
   381
1005
431C
1001
ACAD_DSTYLE_DIM_EXT2_LINETYPE
1070
   382
1005
431C
  0
DIMSTYLE
105
4DDA
330
42C1
100
AcDbSymbolTableRecord
100
AcDbDimStyleTableRecord
  2
AM_ISO$SF
 70
     0
  4
"
 41
3.5
 42
1.0
 43
10.0
 44
1.0
 47
0.1
 48
0.1
 73
     0
 74
     0
 75
     1
 76
     1
 77
     1
 78
     8
 79
     2
140
3.5
141
0.0
143
0.0393701
146
0.71
147
1.5
172
     1
176
   256
177
   256
178
     2
271
     2
272
     3
274
     4
283
     0
284
     8
340
4317
371
    -1
372
    -1
1001
ACAD_DSTYLE_DIMBREAK
1070
   391
1040
3.75
1001
ACAD_DSTYLE_DIMJAG
1070
   388
1040
1.5
1001
ACAD_DSTYLE_DIMARC_LENGTH_SYMBOL
1070
   379
1070
     1
1001
ACAD_DSTYLE_DIM_LINETYPE
1070
   380
1005
431C
1001
ACAD_DSTYLE_DIM_EXT1_LINETYPE
1070
   381
1005
431C
1001
ACAD_DSTYLE_DIM_EXT2_LINETYPE
1070
   382
1005
431C
  0
DIMSTYLE
105
4DDB
330
42C1
100
AcDbSymbolTableRecord
100
AcDbDimStyleTableRecord
  2
AM_ISO$SH
 70
     0
  4
"
 41
3.5
 42
1.0
 43
10.0
 44
1.0
 47
0.1
 48
0.1
 73
     0
 74
     0
 75
     1
 76
     1
 77
     1
 78
     8
 79
     2
140
3.5
141
0.0
143
0.0393701
144
2.0
146
0.71
147
1.5
172
     1
173
     1
176
   256
177
   256
178
     2
271
     2
272
     3
274
     4
283
     0
284
     8
340
4317
343
4B1D
371
    -1
372
    -1
1001
ACAD_DSTYLE_DIMBREAK
1070
   391
1040
3.75
1001
ACAD_DSTYLE_DIMJAG
1070
   388
1040
1.5
1001
ACAD_DSTYLE_DIMARC_LENGTH_SYMBOL
1070
   379
1070
     1
1001
ACAD_DSTYLE_DIM_LINETYPE
1070
   380
1005
431C
1001
ACAD_DSTYLE_DIM_EXT1_LINETYPE
1070
   381
1005
431C
1001
ACAD_DSTYLE_DIM_EXT2_LINETYPE
1070
   382
1005
431C
  0
DIMSTYLE
105
4DDC
330
42C1
100
AcDbSymbolTableRecord
100
AcDbDimStyleTableRecord
  2
英寸
 70
     0
  3
"
 41
15.0
 42
10.0
 43
3.75
 44
1.25
 73
     0
 74
     0
 77
     1
 78
     8
140
18.0
141
2.5
143
0.03937007874016
144
0.03937007874
147
3.0
171
     4
172
     1
176
     3
177
     3
178
     3
271
     3
272
     3
273
     7
274
     4
276
     2
277
     5
278
    44
283
     0
284
     8
340
469E
371
    13
372
    13
1001
ACAD_DSTYLE_DIMBREAK
1070
   391
1040
3.75
1001
ACAD_DSTYLE_DIMJAG
1070
   388
1040
1.5
1001
ACAD_DSTYLE_DIMTALN
1070
   392
1070
     0
1001
ACAD_DSTYLE_DIMEXT_LENGTH
1070
   378
1040
1.25
1001
ACAD_DSTYLE_DIMJOGGED_JOGANGLE_SYMBOL
1070
   384
1040
1.570796326794896
1001
ACAD_DSTYLE_DIM_LINETYPE
1070
   380
1005
431E
1001
ACAD_DSTYLE_DIM_EXT1_LINETYPE
1070
   381
1005
431E
1001
ACAD_DSTYLE_DIM_EXT2_LINETYPE
1070
   382
1005
431E
  0
DIMSTYLE
105
536B
330
42C1
100
AcDbSymbolTableRecord
100
AcDbDimStyleTableRecord
  2
XIAO
 70
     0
 41
2.0
 42
1.5
 43
1.0
 44
0.5
 73
     0
 74
     0
 77
     1
 78
     8
140
2.0
141
1.0
143
0.03937007874016
147
0.8
171
     3
172
     1
179
     1
271
     1
272
     1
274
     3
278
    44
283
     0
284
     8
340
4317
  0
DIMSTYLE
105
536C
330
42C1
100
AcDbSymbolTableRecord
100
AcDbDimStyleTableRecord
  2
副本 (3)Standard
 70
     0
  4
"
 41
16.0
 42
22.0
 44
8.0
 73
     0
 74
     0
 78
     8
 79
     2
140
16.0
141
0.0
143
0.03937
147
5.0
171
     3
172
     1
175
     1
176
     3
177
     3
178
     3
179
     1
271
     1
272
     1
273
     7
274
     3
278
    44
289
     1
340
4317
344
5366
  0
DIMSTYLE
105
536D
330
42C1
100
AcDbSymbolTableRecord
100
AcDbDimStyleTableRecord
  2
100721
 70
     0
  4
"
 41
12.0
 42
18.0
 44
7.0
 73
     0
 74
     0
 78
     8
 79
     2
140
12.0
143
0.03937
147
5.0
171
     1
172
     1
176
   256
177
   256
178
   256
179
     1
271
     1
272
     1
274
     1
278
    44
340
4317
  0
DIMSTYLE
105
5715
330
42C1
100
AcDbSymbolTableRecord
100
AcDbDimStyleTableRecord
  2
带公差
 70
     0
  3
"
 41
16.0
 42
16.0
 44
8.0
 73
     0
 74
     0
 78
     8
 79
     2
140
16.0
144
0.03937
147
5.0
170
     1
171
     0
172
     1
176
   256
177
   256
178
   256
179
     1
271
     3
272
     3
274
     0
276
     2
277
     5
278
    44
340
4317
1001
ACAD_DSTYLE_DIMBREAK
1070
   391
1040
0.125
1001
ACAD_DSTYLE_DIMJAG
1070
   388
1040
1.5
1001
ACAD_DSTYLE_DIMTALN
1070
   392
1070
     0
  0
DIMSTYLE
105
5A60
330
42C1
100
AcDbSymbolTableRecord
100
AcDbDimStyleTableRecord
  2
毫米
 70
     0
 41
10.0
 42
2.0
 43
3.75
 44
2.0
 73
     0
 74
     0
 78
     8
 79
     2
140
15.0
141
2.5
143
0.03937007874016
147
3.0
172
     1
176
     3
177
     3
178
     3
271
     0
272
     0
278
    44
283
     0
284
     8
340
4317
341
4698
371
    13
372
    13
1001
ACAD_DSTYLE_DIMBREAK
1070
   391
1040
3.75
1001
ACAD_DSTYLE_DIMJAG
1070
   388
1040
1.5
1001
ACAD_DSTYLE_DIMTALN
1070
   392
1070
     0
1001
ACAD_DSTYLE_DIMEXT_LENGTH
1070
   378
1040
1.25
1001
ACAD_DSTYLE_DIMJOGGED_JOGANGLE_SYMBOL
1070
   384
1040
1.570796326794896
1001
ACAD_DSTYLE_DIM_LINETYPE
1070
   380
1005
431E
1001
ACAD_DSTYLE_DIM_EXT1_LINETYPE
1070
   381
1005
431E
1001
ACAD_DSTYLE_DIM_EXT2_LINETYPE
1070
   382
1005
431E
  0
DIMSTYLE
105
5A61
330
42C1
100
AcDbSymbolTableRecord
100
AcDbDimStyleTableRecord
  2
5倍
 70
     0
 41
10.0
 42
25.0
 44
8.0
 73
     0
 74
     0
 78
     8
 79
     2
140
10.0
147
5.0
172
     1
176
     3
177
     3
178
     3
179
     1
271
     0
272
     0
278
    44
340
4317
1001
ACAD_DSTYLE_DIMBREAK
1070
   391
1040
0.125
1001
ACAD_DSTYLE_DIMJAG
1070
   388
1040
1.5
1001
ACAD_DSTYLE_DIMTALN
1070
   392
1070
     0
1001
ACAD_DSTYLE_DIMEXT_LENGTH
1070
   378
1040
8.0
  0
ENDTAB
  0
TABLE
  2
BLOCK_RECORD
  5
42B8
330
0
100
AcDbSymbolTable
 70
    73
  0
BLOCK_RECORD
  5
432D
102
{ACAD_XDICTIONARY
360
506A
102
}
330
42B8
100
AcDbSymbolTableRecord
100
AcDbBlockTableRecord
  2
*Model_Space
340
4330
  0
BLOCK_RECORD
  5
4329
330
42B8
100
AcDbSymbolTableRecord
100
AcDbBlockTableRecord
  2
*Paper_Space
340
432C
  0
BLOCK_RECORD
  5
440D
330
42B8
100
AcDbSymbolTableRecord
100
AcDbBlockTableRecord
  2
*D0
340
0
  0
BLOCK_RECORD
  5
440F
330
42B8
100
AcDbSymbolTableRecord
100
AcDbBlockTableRecord
  2
*U1
340
0
102
{BLKREFS
331
3497
102
}
  0
BLOCK_RECORD
  5
4415
330
42B8
100
AcDbSymbolTableRecord
100
AcDbBlockTableRecord
  2
*D2
340
0
  0
BLOCK_RECORD
  5
4417
330
42B8
100
AcDbSymbolTableRecord
100
AcDbBlockTableRecord
  2
*U3
340
0
102
{BLKREFS
331
381B
102
}
  0
BLOCK_RECORD
  5
4419
330
42B8
100
AcDbSymbolTableRecord
100
AcDbBlockTableRecord
  2
*D4
340
0
  0
BLOCK_RECORD
  5
441B
330
42B8
100
AcDbSymbolTableRecord
100
AcDbBlockTableRecord
  2
*U5
340
0
102
{BLKREFS
331
34C3
102
}
  0
BLOCK_RECORD
  5
441D
330
42B8
100
AcDbSymbolTableRecord
100
AcDbBlockTableRecord
  2
*D6
340
0
  0
BLOCK_RECORD
  5
441F
330
42B8
100
AcDbSymbolTableRecord
100
AcDbBlockTableRecord
  2
*U7
340
0
102
{BLKREFS
331
34CD
102
}
  0
BLOCK_RECORD
  5
4421
330
42B8
100
AcDbSymbolTableRecord
100
AcDbBlockTableRecord
  2
*D8
340
0
  0
BLOCK_RECORD
  5
4423
330
42B8
100
AcDbSymbolTableRecord
100
AcDbBlockTableRecord
  2
*U9
340
0
102
{BLKREFS
331
3807
102
}
  0
BLOCK_RECORD
  5
4425
330
42B8
100
AcDbSymbolTableRecord
100
AcDbBlockTableRecord
  2
*D10
340
0
  0
BLOCK_RECORD
  5
4427
330
42B8
100
AcDbSymbolTableRecord
100
AcDbBlockTableRecord
  2
*U11
340
0
102
{BLKREFS
331
382F
102
}
  0
BLOCK_RECORD
  5
4441
330
42B8
100
AcDbSymbolTableRecord
100
AcDbBlockTableRecord
  2
*D12
340
0
  0
BLOCK_RECORD
  5
4443
330
42B8
100
AcDbSymbolTableRecord
100
AcDbBlockTableRecord
  2
*U13
340
0
102
{BLKREFS
331
34B9
102
}
  0
BLOCK_RECORD
  5
4445
330
42B8
100
AcDbSymbolTableRecord
100
AcDbBlockTableRecord
  2
*D14
340
0
  0
BLOCK_RECORD
  5
4447
330
42B8
100
AcDbSymbolTableRecord
100
AcDbBlockTableRecord
  2
*U15
340
0
102
{BLKREFS
331
3576
102
}
  0
BLOCK_RECORD
  5
4451
330
42B8
100
AcDbSymbolTableRecord
100
AcDbBlockTableRecord
  2
*D16
340
0
  0
BLOCK_RECORD
  5
4453
330
42B8
100
AcDbSymbolTableRecord
100
AcDbBlockTableRecord
  2
*U17
340
0
102
{BLKREFS
331
3811
102
}
  0
BLOCK_RECORD
  5
445F
330
42B8
100
AcDbSymbolTableRecord
100
AcDbBlockTableRecord
  2
*U18
340
0
102
{BLKREFS
331
5C8D
102
}
  0
BLOCK_RECORD
  5
4461
330
42B8
100
AcDbSymbolTableRecord
100
AcDbBlockTableRecord
  2
*U19
340
0
102
{BLKREFS
331
5C8C
102
}
  0
BLOCK_RECORD
  5
4463
330
42B8
100
AcDbSymbolTableRecord
100
AcDbBlockTableRecord
  2
*U20
340
0
  0
BLOCK_RECORD
  5
4465
330
42B8
100
AcDbSymbolTableRecord
100
AcDbBlockTableRecord
  2
*U21
340
0
  0
BLOCK_RECORD
  5
4467
330
42B8
100
AcDbSymbolTableRecord
100
AcDbBlockTableRecord
  2
*U22
340
0
  0
BLOCK_RECORD
  5
4469
330
42B8
100
AcDbSymbolTableRecord
100
AcDbBlockTableRecord
  2
*U23
340
0
  0
BLOCK_RECORD
  5
446B
330
42B8
100
AcDbSymbolTableRecord
100
AcDbBlockTableRecord
  2
*U24
340
0
  0
BLOCK_RECORD
  5
446D
330
42B8
100
AcDbSymbolTableRecord
100
AcDbBlockTableRecord
  2
*U25
340
0
  0
BLOCK_RECORD
  5
4698
330
42B8
100
AcDbSymbolTableRecord
100
AcDbBlockTableRecord
  2
_Open30
340
0
  0
BLOCK_RECORD
  5
4847
330
42B8
100
AcDbSymbolTableRecord
100
AcDbBlockTableRecord
  2
*D27
340
0
  0
BLOCK_RECORD
  5
4855
330
42B8
100
AcDbSymbolTableRecord
100
AcDbBlockTableRecord
  2
*D28
340
0
  0
BLOCK_RECORD
  5
4863
330
42B8
100
AcDbSymbolTableRecord
100
AcDbBlockTableRecord
  2
*D29
340
0
  0
BLOCK_RECORD
  5
4871
330
42B8
100
AcDbSymbolTableRecord
100
AcDbBlockTableRecord
  2
*D30
340
0
  0
BLOCK_RECORD
  5
487F
330
42B8
100
AcDbSymbolTableRecord
100
AcDbBlockTableRecord
  2
*D31
340
0
  0
BLOCK_RECORD
  5
4B1D
330
42B8
100
AcDbSymbolTableRecord
100
AcDbBlockTableRecord
  2
GENAXEH
340
0
  0
BLOCK_RECORD
  5
4BBF
330
42B8
100
AcDbSymbolTableRecord
100
AcDbBlockTableRecord
  2
*D33
340
0
  0
BLOCK_RECORD
  5
4BCD
330
42B8
100
AcDbSymbolTableRecord
100
AcDbBlockTableRecord
  2
*D34
340
0
  0
BLOCK_RECORD
  5
4C22
330
42B8
100
AcDbSymbolTableRecord
100
AcDbBlockTableRecord
  2
*D35
340
0
  0
BLOCK_RECORD
  5
4C30
330
42B8
100
AcDbSymbolTableRecord
100
AcDbBlockTableRecord
  2
*D36
340
0
  0
BLOCK_RECORD
  5
4C3E
330
42B8
100
AcDbSymbolTableRecord
100
AcDbBlockTableRecord
  2
*D37
340
0
  0
BLOCK_RECORD
  5
4F2E
330
42B8
100
AcDbSymbolTableRecord
100
AcDbBlockTableRecord
  2
*D38
340
0
  0
BLOCK_RECORD
  5
4F3C
330
42B8
100
AcDbSymbolTableRecord
100
AcDbBlockTableRecord
  2
*D39
340
0
  0
BLOCK_RECORD
  5
4F4A
330
42B8
100
AcDbSymbolTableRecord
100
AcDbBlockTableRecord
  2
*D40
340
0
  0
BLOCK_RECORD
  5
5177
330
42B8
100
AcDbSymbolTableRecord
100
AcDbBlockTableRecord
  2
*D41
340
0
  0
BLOCK_RECORD
  5
5199
330
42B8
100
AcDbSymbolTableRecord
100
AcDbBlockTableRecord
  2
*D42
340
0
  0
BLOCK_RECORD
  5
51DB
330
42B8
100
AcDbSymbolTableRecord
100
AcDbBlockTableRecord
  2
*D43
340
0
  0
BLOCK_RECORD
  5
51E9
330
42B8
100
AcDbSymbolTableRecord
100
AcDbBlockTableRecord
  2
*D44
340
0
  0
BLOCK_RECORD
  5
51F7
330
42B8
100
AcDbSymbolTableRecord
100
AcDbBlockTableRecord
  2
*D45
340
0
  0
BLOCK_RECORD
  5
5205
330
42B8
100
AcDbSymbolTableRecord
100
AcDbBlockTableRecord
  2
*D46
340
0
  0
BLOCK_RECORD
  5
5366
330
42B8
100
AcDbSymbolTableRecord
100
AcDbBlockTableRecord
  2
_None
340
0
  0
BLOCK_RECORD
  5
551F
102
{ACAD_XDICTIONARY
360
5522
102
}
330
42B8
100
AcDbSymbolTableRecord
100
AcDbBlockTableRecord
  2
A$C2558637D
340
0
102
{BLKREFS
331
5C8B
331
5C8F
102
}
  0
BLOCK_RECORD
  5
5529
330
42B8
100
AcDbSymbolTableRecord
100
AcDbBlockTableRecord
  2
*D49
340
0
  0
BLOCK_RECORD
  5
5537
330
42B8
100
AcDbSymbolTableRecord
100
AcDbBlockTableRecord
  2
*D50
340
0
  0
BLOCK_RECORD
  5
5545
330
42B8
100
AcDbSymbolTableRecord
100
AcDbBlockTableRecord
  2
*D51
340
0
  0
BLOCK_RECORD
  5
5553
330
42B8
100
AcDbSymbolTableRecord
100
AcDbBlockTableRecord
  2
*D52
340
0
  0
BLOCK_RECORD
  5
55A9
330
42B8
100
AcDbSymbolTableRecord
100
AcDbBlockTableRecord
  2
*D53
340
0
  0
BLOCK_RECORD
  5
56DD
330
42B8
100
AcDbSymbolTableRecord
100
AcDbBlockTableRecord
  2
*D54
340
0
  0
BLOCK_RECORD
  5
56EB
330
42B8
100
AcDbSymbolTableRecord
100
AcDbBlockTableRecord
  2
*D55
340
0
  0
BLOCK_RECORD
  5
56F9
330
42B8
100
AcDbSymbolTableRecord
100
AcDbBlockTableRecord
  2
*D56
340
0
  0
BLOCK_RECORD
  5
5707
330
42B8
100
AcDbSymbolTableRecord
100
AcDbBlockTableRecord
  2
*D57
340
0
  0
BLOCK_RECORD
  5
58FE
330
42B8
100
AcDbSymbolTableRecord
100
AcDbBlockTableRecord
  2
*D58
340
0
  0
BLOCK_RECORD
  5
590B
330
42B8
100
AcDbSymbolTableRecord
100
AcDbBlockTableRecord
  2
*D59
340
0
  0
BLOCK_RECORD
  5
5918
330
42B8
100
AcDbSymbolTableRecord
100
AcDbBlockTableRecord
  2
*D60
340
0
  0
BLOCK_RECORD
  5
5925
330
42B8
100
AcDbSymbolTableRecord
100
AcDbBlockTableRecord
  2
*D61
340
0
  0
BLOCK_RECORD
  5
5996
330
42B8
100
AcDbSymbolTableRecord
100
AcDbBlockTableRecord
  2
*D62
340
0
  0
BLOCK_RECORD
  5
5A1A
330
42B8
100
AcDbSymbolTableRecord
100
AcDbBlockTableRecord
  2
*D63
340
0
  0
BLOCK_RECORD
  5
5A28
330
42B8
100
AcDbSymbolTableRecord
100
AcDbBlockTableRecord
  2
*D64
340
0
  0
BLOCK_RECORD
  5
5A36
330
42B8
100
AcDbSymbolTableRecord
100
AcDbBlockTableRecord
  2
*D65
340
0
  0
BLOCK_RECORD
  5
5A44
330
42B8
100
AcDbSymbolTableRecord
100
AcDbBlockTableRecord
  2
*D66
340
0
  0
BLOCK_RECORD
  5
5A52
330
42B8
100
AcDbSymbolTableRecord
100
AcDbBlockTableRecord
  2
*D67
340
0
  0
BLOCK_RECORD
  5
5BF0
330
42B8
100
AcDbSymbolTableRecord
100
AcDbBlockTableRecord
  2
*D68
340
0
  0
BLOCK_RECORD
  5
5BFD
330
42B8
100
AcDbSymbolTableRecord
100
AcDbBlockTableRecord
  2
*D69
340
0
  0
BLOCK_RECORD
  5
5C0A
330
42B8
100
AcDbSymbolTableRecord
100
AcDbBlockTableRecord
  2
*D70
340
0
  0
BLOCK_RECORD
  5
5C17
330
42B8
100
AcDbSymbolTableRecord
100
AcDbBlockTableRecord
  2
*D71
340
0
  0
BLOCK_RECORD
  5
5C24
330
42B8
100
AcDbSymbolTableRecord
100
AcDbBlockTableRecord
  2
*D72
340
0
  0
ENDTAB
  0
ENDSEC
  0
SECTION
  2
BLOCKS
  0
BLOCK
  5
432E
330
432D
100
AcDbEntity
  8
0
100
AcDbBlockBegin
  2
*Model_Space
 70
     0
 10
0.0
 20
0.0
 30
0.0
  3
*Model_Space
  1

  0
ENDBLK
  5
432F
330
432D
100
AcDbEntity
  8
0
100
AcDbBlockEnd
  0
BLOCK
  5
432A
330
4329
100
AcDbEntity
 67
     1
  8
0
100
AcDbBlockBegin
  2
*Paper_Space
 70
     0
 10
0.0
 20
0.0
 30
0.0
  3
*Paper_Space
  1

  0
ENDBLK
  5
432B
330
4329
100
AcDbEntity
 67
     1
  8
0
100
AcDbBlockEnd
  0
BLOCK
  5
440E
330
440D
100
AcDbEntity
  8
0
100
AcDbBlockBegin
  2
*D0
 70
     1
 10
0.0
 20
0.0
 30
0.0
  3
*D0
  1

  0
LINE
  5
3491
330
440D
100
AcDbEntity
  8
标注
  6
ByBlock
100
AcDbLine
 10
453.6164645460622
 20
161.054463058452
 30
0.0
 11
453.6164645460622
 21
152.1541856005704
 31
0.0
  0
LINE
  5
3492
330
440D
100
AcDbEntity
  8
标注
  6
ByBlock
100
AcDbLine
 10
463.616464546022
 20
161.054463058452
 30
0.0
 11
463.616464546022
 21
152.1541856005704
 31
0.0
  0
LINE
  5
3493
330
440D
100
AcDbEntity
  8
标注
  6
ByBlock
100
AcDbLine
 10
454.2664645460621
 20
152.4741856005704
 30
0.0
 11
457.8206312127088
 21
152.4741856005704
 31
0.0
  0
LINE
  5
3494
330
440D
100
AcDbEntity
  8
标注
  6
ByBlock
100
AcDbLine
 10
462.9664645460223
 20
152.4741856005704
 30
0.0
 11
459.4122978793754
 21
152.4741856005704
 31
0.0
  0
SOLID
  5
3495
330
440D
100
AcDbEntity
  8
标注
100
AcDbTrace
 10
454.2664645460621
 20
152.5825189339037
 30
0.0
 11
454.2664645460621
 21
152.3658522672371
 31
0.0
 12
453.6164645460622
 22
152.4741856005704
 32
0.0
 13
453.6164645460622
 23
152.4741856005704
 33
0.0
  0
SOLID
  5
3496
330
440D
100
AcDbEntity
  8
标注
100
AcDbTrace
 10
462.9664645460223
 20
152.5825189339037
 30
0.0
 11
462.9664645460223
 21
152.3658522672371
 31
0.0
 12
463.616464546022
 22
152.4741856005704
 32
0.0
 13
463.616464546022
 23
152.4741856005704
 33
0.0
  0
INSERT
  5
3497
330
440D
100
AcDbEntity
  8
0
100
AcDbBlockReference
  2
*U1
 10
0.0
 20
0.0
 30
0.0
  0
POINT
  5
3498
330
440D
100
AcDbEntity
  8
DEFPOINTS
 62
     0
100
AcDbPoint
 10
453.6164645460622
 20
161.934463058452
 30
0.0
  0
POINT
  5
3499
330
440D
100
AcDbEntity
  8
DEFPOINTS
 62
     0
100
AcDbPoint
 10
463.616464546022
 20
161.934463058452
 30
0.0
  0
POINT
  5
349A
330
440D
100
AcDbEntity
  8
DEFPOINTS
 62
     0
100
AcDbPoint
 10
463.616464546022
 20
152.4741856005704
 30
0.0
  0
ENDBLK
  5
33E8
330
440D
100
AcDbEntity
  8
0
100
AcDbBlockEnd
  0
BLOCK
  5
4410
330
440F
100
AcDbEntity
  8
0
100
AcDbBlockBegin
  2
*U1
 70
     1
 10
0.0
 20
0.0
 30
0.0
  3
*U1
  1

  0
TEXT
  5
3F06
330
440F
100
AcDbEntity
  8
标注
100
AcDbText
 10
458.0206312127088
 20
152.1491856005704
 30
0.0
 40
0.65
  1
10"
100
AcDbText
  0
ENDBLK
  5
3F08
330
440F
100
AcDbEntity
  8
0
100
AcDbBlockEnd
  0
BLOCK
  5
4416
330
4415
100
AcDbEntity
  8
0
100
AcDbBlockBegin
  2
*D2
 70
     1
 10
0.0
 20
0.0
 30
0.0
  3
*D2
  1

  0
LINE
  5
3815
330
4415
100
AcDbEntity
  8
标注
  6
ByBlock
100
AcDbLine
 10
452.3943545009451
 20
161.7240958431686
 30
0.0
 11
452.3943545009451
 21
152.1541856005704
 31
0.0
  0
LINE
  5
3816
330
4415
100
AcDbEntity
  8
标注
  6
ByBlock
100
AcDbLine
 10
438.5770944673701
 20
162.1174551844199
 30
0.0
 11
438.5770944673701
 21
152.1541856005704
 31
0.0
  0
LINE
  5
3817
330
4415
100
AcDbEntity
  8
标注
  6
ByBlock
100
AcDbLine
 10
451.7443545009451
 20
152.4741856005704
 30
0.0
 11
447.6357244841577
 21
152.4741856005704
 31
0.0
  0
LINE
  5
3818
330
4415
100
AcDbEntity
  8
标注
  6
ByBlock
100
AcDbLine
 10
439.2270944673703
 20
152.4741856005704
 30
0.0
 11
443.3357244841577
 21
152.4741856005704
 31
0.0
  0
SOLID
  5
3819
330
4415
100
AcDbEntity
  8
标注
100
AcDbTrace
 10
451.7443545009451
 20
152.5825189339037
 30
0.0
 11
451.7443545009451
 21
152.3658522672371
 31
0.0
 12
452.3943545009451
 22
152.4741856005704
 32
0.0
 13
452.3943545009451
 23
152.4741856005704
 33
0.0
  0
SOLID
  5
381A
330
4415
100
AcDbEntity
  8
标注
100
AcDbTrace
 10
439.2270944673703
 20
152.5825189339037
 30
0.0
 11
439.2270944673703
 21
152.3658522672371
 31
0.0
 12
438.5770944673701
 22
152.4741856005704
 32
0.0
 13
438.5770944673701
 23
152.4741856005704
 33
0.0
  0
INSERT
  5
381B
330
4415
100
AcDbEntity
  8
0
100
AcDbBlockReference
  2
*U3
 10
0.0
 20
0.0
 30
0.0
  0
POINT
  5
381C
330
4415
100
AcDbEntity
  8
DEFPOINTS
 62
     0
100
AcDbPoint
 10
452.3943545009451
 20
162.6040958431686
 30
0.0
  0
POINT
  5
381D
330
4415
100
AcDbEntity
  8
DEFPOINTS
 62
     0
100
AcDbPoint
 10
438.5770944673701
 20
162.9974551844199
 30
0.0
  0
POINT
  5
381E
330
4415
100
AcDbEntity
  8
DEFPOINTS
 62
     0
100
AcDbPoint
 10
438.5770944673701
 20
152.4741856005704
 30
0.0
  0
ENDBLK
  5
3403
330
4415
100
AcDbEntity
  8
0
100
AcDbBlockEnd
  0
BLOCK
  5
4418
330
4417
100
AcDbEntity
  8
0
100
AcDbBlockBegin
  2
*U3
 70
     1
 10
0.0
 20
0.0
 30
0.0
  3
*U3
  1

  0
TEXT
  5
3F59
330
4417
100
AcDbEntity
  8
标注
100
AcDbText
 10
443.5357244841577
 20
152.1491856005704
 30
0.0
 40
0.65
  1
13 3/4"
100
AcDbText
  0
ENDBLK
  5
3F5B
330
4417
100
AcDbEntity
  8
0
100
AcDbBlockEnd
  0
BLOCK
  5
441A
330
4419
100
AcDbEntity
  8
0
100
AcDbBlockBegin
  2
*D4
 70
     1
 10
0.0
 20
0.0
 30
0.0
  3
*D4
  1

  0
LINE
  5
34BD
330
4419
100
AcDbEntity
  8
标注
  6
ByBlock
100
AcDbLine
 10
459.4964645459021
 20
154.9659591214723
 30
0.0
 11
466.0764453192927
 21
154.9659591214723
 31
0.0
  0
LINE
  5
34BE
330
4419
100
AcDbEntity
  8
标注
  6
ByBlock
100
AcDbLine
 10
459.4964645463058
 20
168.9817071529096
 30
0.0
 11
466.0764453192927
 21
168.9817071529096
 31
0.0
  0
LINE
  5
34BF
330
4419
100
AcDbEntity
  8
标注
  6
ByBlock
100
AcDbLine
 10
465.7564453192925
 20
155.6159591214723
 30
0.0
 11
465.7564453192925
 21
161.1238331371909
 31
0.0
  0
LINE
  5
34C0
330
4419
100
AcDbEntity
  8
标注
  6
ByBlock
100
AcDbLine
 10
465.7564453192925
 20
168.3317071529097
 30
0.0
 11
465.7564453192925
 21
162.8238331371909
 31
0.0
  0
SOLID
  5
34C1
330
4419
100
AcDbEntity
  8
标注
100
AcDbTrace
 10
465.6481119859591
 20
155.6159591214723
 30
0.0
 11
465.864778652626
 21
155.6159591214723
 31
0.0
 12
465.7564453192925
 22
154.9659591214723
 32
0.0
 13
465.7564453192925
 23
154.9659591214723
 33
0.0
  0
SOLID
  5
34C2
330
4419
100
AcDbEntity
  8
标注
100
AcDbTrace
 10
465.6481119859591
 20
168.3317071529097
 30
0.0
 11
465.864778652626
 21
168.3317071529097
 31
0.0
 12
465.7564453192925
 22
168.9817071529096
 32
0.0
 13
465.7564453192925
 23
168.9817071529096
 33
0.0
  0
INSERT
  5
34C3
330
4419
100
AcDbEntity
  8
0
100
AcDbBlockReference
  2
*U5
 10
0.0
 20
0.0
 30
0.0
  0
POINT
  5
34C4
330
4419
100
AcDbEntity
  8
DEFPOINTS
 62
     0
100
AcDbPoint
 10
458.616464545902
 20
154.9659591214723
 30
0.0
  0
POINT
  5
34C5
330
4419
100
AcDbEntity
  8
DEFPOINTS
 62
     0
100
AcDbPoint
 10
458.6164645463058
 20
168.9817071529096
 30
0.0
  0
POINT
  5
34C6
330
4419
100
AcDbEntity
  8
DEFPOINTS
 62
     0
100
AcDbPoint
 10
465.7564453192925
 20
168.9817071529096
 30
0.0
  0
ENDBLK
  5
3410
330
4419
100
AcDbEntity
  8
0
100
AcDbBlockEnd
  0
BLOCK
  5
441C
330
441B
100
AcDbEntity
  8
0
100
AcDbBlockBegin
  2
*U5
 70
     1
 10
0.0
 20
0.0
 30
0.0
  3
*U5
  1

  0
TEXT
  5
3F12
330
441B
100
AcDbEntity
  8
标注
100
AcDbText
 10
466.0814453192925
 20
161.323833137191
 30
0.0
 40
0.65
  1
14"
 50
90.0
100
AcDbText
  0
ENDBLK
  5
3F14
330
441B
100
AcDbEntity
  8
0
100
AcDbBlockEnd
  0
BLOCK
  5
441E
330
441D
100
AcDbEntity
  8
0
100
AcDbBlockBegin
  2
*D6
 70
     1
 10
0.0
 20
0.0
 30
0.0
  3
*D6
  1

  0
LINE
  5
34C7
330
441D
100
AcDbEntity
  8
标注
100
AcDbLine
 10
465.4964645460185
 20
187.983917000921
 30
0.0
 11
465.581994229596
 21
187.983917000921
 31
0.0
  0
LINE
  5
34C8
330
441D
100
AcDbEntity
  8
标注
100
AcDbLine
 10
461.3742354899967
 20
180.9760429852023
 30
0.0
 11
465.581994229596
 21
180.9760429852023
 31
0.0
  0
LINE
  5
34C9
330
441D
100
AcDbEntity
  8
标注
100
AcDbLine
 10
465.261994229596
 20
187.333917000921
 30
0.0
 11
465.261994229596
 21
185.1133133263949
 31
0.0
  0
LINE
  5
34CA
330
441D
100
AcDbEntity
  8
标注
100
AcDbLine
 10
465.261994229596
 20
181.6260429852023
 30
0.0
 11
465.261994229596
 21
183.8466466597282
 31
0.0
  0
SOLID
  5
34CB
330
441D
100
AcDbEntity
  8
标注
100
AcDbTrace
 10
465.1536608962626
 20
187.333917000921
 30
0.0
 11
465.3703275629291
 21
187.333917000921
 31
0.0
 12
465.261994229596
 22
187.983917000921
 32
0.0
 13
465.261994229596
 23
187.983917000921
 33
0.0
  0
SOLID
  5
34CC
330
441D
100
AcDbEntity
  8
标注
100
AcDbTrace
 10
465.1536608962626
 20
181.6260429852023
 30
0.0
 11
465.3703275629291
 21
181.6260429852023
 31
0.0
 12
465.261994229596
 22
180.9760429852023
 32
0.0
 13
465.261994229596
 23
180.9760429852023
 33
0.0
  0
INSERT
  5
34CD
330
441D
100
AcDbEntity
  8
0
100
AcDbBlockReference
  2
*U7
 10
0.0
 20
0.0
 30
0.0
  0
POINT
  5
34CE
330
441D
100
AcDbEntity
  8
DEFPOINTS
 62
     0
100
AcDbPoint
 10
464.6164645460185
 20
187.983917000921
 30
0.0
  0
POINT
  5
34CF
330
441D
100
AcDbEntity
  8
DEFPOINTS
 62
     0
100
AcDbPoint
 10
460.4942354899967
 20
180.9760429852023
 30
0.0
  0
POINT
  5
34D0
330
441D
100
AcDbEntity
  8
DEFPOINTS
 62
     0
100
AcDbPoint
 10
465.261994229596
 20
180.9760429852023
 30
0.0
  0
ENDBLK
  5
341D
330
441D
100
AcDbEntity
  8
0
100
AcDbBlockEnd
  0
BLOCK
  5
4420
330
441F
100
AcDbEntity
  8
0
100
AcDbBlockBegin
  2
*U7
 70
     1
 10
0.0
 20
0.0
 30
0.0
  3
*U7
  1

  0
TEXT
  5
3F16
330
441F
100
AcDbEntity
  8
标注
100
AcDbText
 10
465.5869942295957
 20
184.0466466597283
 30
0.0
 40
0.65
  1
7"
 50
90.0
100
AcDbText
  0
ENDBLK
  5
3F18
330
441F
100
AcDbEntity
  8
0
100
AcDbBlockEnd
  0
BLOCK
  5
4422
330
4421
100
AcDbEntity
  8
0
100
AcDbBlockBegin
  2
*D8
 70
     1
 10
0.0
 20
0.0
 30
0.0
  3
*D8
  1

  0
LINE
  5
3801
330
4421
100
AcDbEntity
  8
标注
  6
ByBlock
100
AcDbLine
 10
437.4944173020221
 20
157.8103685702701
 30
0.0
 11
437.4944173020221
 21
150.712346408988
 31
0.0
  0
LINE
  5
3802
330
4421
100
AcDbEntity
  8
标注
  6
ByBlock
100
AcDbLine
 10
464.6597716326312
 20
157.8103685702701
 30
0.0
 11
464.6597716326312
 21
150.712346408988
 31
0.0
  0
LINE
  5
3803
330
4421
100
AcDbEntity
  8
标注
  6
ByBlock
100
AcDbLine
 10
438.144417302022
 20
151.032346408988
 30
0.0
 11
448.9270944673266
 21
151.032346408988
 31
0.0
  0
LINE
  5
3804
330
4421
100
AcDbEntity
  8
标注
  6
ByBlock
100
AcDbLine
 10
464.0097716326311
 20
151.032346408988
 30
0.0
 11
453.2270944673268
 21
151.032346408988
 31
0.0
  0
SOLID
  5
3805
330
4421
100
AcDbEntity
  8
标注
100
AcDbTrace
 10
438.144417302022
 20
151.1406797423213
 30
0.0
 11
438.144417302022
 21
150.9240130756547
 31
0.0
 12
437.4944173020221
 22
151.032346408988
 32
0.0
 13
437.4944173020221
 23
151.032346408988
 33
0.0
  0
SOLID
  5
3806
330
4421
100
AcDbEntity
  8
标注
100
AcDbTrace
 10
464.0097716326311
 20
151.1406797423213
 30
0.0
 11
464.0097716326311
 21
150.9240130756547
 31
0.0
 12
464.6597716326312
 22
151.032346408988
 32
0.0
 13
464.6597716326312
 23
151.032346408988
 33
0.0
  0
INSERT
  5
3807
330
4421
100
AcDbEntity
  8
0
100
AcDbBlockReference
  2
*U9
 10
0.0
 20
0.0
 30
0.0
  0
POINT
  5
3808
330
4421
100
AcDbEntity
  8
DEFPOINTS
 62
     0
100
AcDbPoint
 10
437.4944173020221
 20
158.6903685702701
 30
0.0
  0
POINT
  5
3809
330
4421
100
AcDbEntity
  8
DEFPOINTS
 62
     0
100
AcDbPoint
 10
464.6597716326312
 20
158.6903685702701
 30
0.0
  0
POINT
  5
380A
330
4421
100
AcDbEntity
  8
DEFPOINTS
 62
     0
100
AcDbPoint
 10
464.6597716326312
 20
151.032346408988
 30
0.0
  0
ENDBLK
  5
342A
330
4421
100
AcDbEntity
  8
0
100
AcDbBlockEnd
  0
BLOCK
  5
4424
330
4423
100
AcDbEntity
  8
0
100
AcDbBlockBegin
  2
*U9
 70
     1
 10
0.0
 20
0.0
 30
0.0
  3
*U9
  1

  0
TEXT
  5
3F51
330
4423
100
AcDbEntity
  8
标注
100
AcDbText
 10
449.1270944673265
 20
150.707346408988
 30
0.0
 40
0.65
  1
27 1/8"
100
AcDbText
  0
ENDBLK
  5
3F53
330
4423
100
AcDbEntity
  8
0
100
AcDbBlockEnd
  0
BLOCK
  5
4426
330
4425
100
AcDbEntity
  8
0
100
AcDbBlockBegin
  2
*D10
 70
     1
 10
0.0
 20
0.0
 30
0.0
  3
*D10
  1

  0
LINE
  5
3829
330
4425
100
AcDbEntity
  8
标注
  6
ByBlock
100
AcDbLine
 10
460.7720550972167
 20
153.7848567592729
 30
0.0
 11
467.4400858694927
 21
153.7848567592729
 31
0.0
  0
LINE
  5
382A
330
4425
100
AcDbEntity
  8
标注
  6
ByBlock
100
AcDbLine
 10
460.6342598216303
 20
170.0446992788921
 30
0.0
 11
467.4400858694927
 21
170.0446992788921
 31
0.0
  0
LINE
  5
382B
330
4425
100
AcDbEntity
  8
标注
  6
ByBlock
100
AcDbLine
 10
467.1200858694929
 20
154.4348567592729
 30
0.0
 11
467.1200858694929
 21
159.8731113524157
 31
0.0
  0
LINE
  5
382C
330
4425
100
AcDbEntity
  8
标注
  6
ByBlock
100
AcDbLine
 10
467.1200858694929
 20
169.3946992788921
 30
0.0
 11
467.1200858694929
 21
163.9564446857491
 31
0.0
  0
SOLID
  5
382D
330
4425
100
AcDbEntity
  8
标注
100
AcDbTrace
 10
467.0117525361596
 20
154.4348567592729
 30
0.0
 11
467.2284192028262
 21
154.4348567592729
 31
0.0
 12
467.1200858694929
 22
153.7848567592729
 32
0.0
 13
467.1200858694929
 23
153.7848567592729
 33
0.0
  0
SOLID
  5
382E
330
4425
100
AcDbEntity
  8
标注
100
AcDbTrace
 10
467.0117525361596
 20
169.3946992788921
 30
0.0
 11
467.2284192028262
 21
169.3946992788921
 31
0.0
 12
467.1200858694929
 22
170.0446992788921
 32
0.0
 13
467.1200858694929
 23
170.0446992788921
 33
0.0
  0
INSERT
  5
382F
330
4425
100
AcDbEntity
  8
0
100
AcDbBlockReference
  2
*U11
 10
0.0
 20
0.0
 30
0.0
  0
POINT
  5
3830
330
4425
100
AcDbEntity
  8
DEFPOINTS
 62
     0
100
AcDbPoint
 10
459.892055097217
 20
153.7848567592729
 30
0.0
  0
POINT
  5
3831
330
4425
100
AcDbEntity
  8
DEFPOINTS
 62
     0
100
AcDbPoint
 10
459.7542598216303
 20
170.0446992788921
 30
0.0
  0
POINT
  5
3832
330
4425
100
AcDbEntity
  8
DEFPOINTS
 62
     0
100
AcDbPoint
 10
467.1200858694929
 20
170.0446992788921
 30
0.0
  0
ENDBLK
  5
3437
330
4425
100
AcDbEntity
  8
0
100
AcDbBlockEnd
  0
BLOCK
  5
4428
330
4427
100
AcDbEntity
  8
0
100
AcDbBlockBegin
  2
*U11
 70
     1
 10
0.0
 20
0.0
 30
0.0
  3
*U11
  1

  0
TEXT
  5
3F5D
330
4427
100
AcDbEntity
  8
标注
100
AcDbText
 10
467.4450858694927
 20
160.0731113524158
 30
0.0
 40
0.65
  1
16 1/4"
 50
90.0
100
AcDbText
  0
ENDBLK
  5
3F5F
330
4427
100
AcDbEntity
  8
0
100
AcDbBlockEnd
  0
BLOCK
  5
4442
330
4441
100
AcDbEntity
  8
0
100
AcDbBlockBegin
  2
*D12
 70
     1
 10
0.0
 20
0.0
 30
0.0
  3
*D12
  1

  0
LINE
  5
34B3
330
4441
100
AcDbEntity
  8
标注
  6
ByBlock
100
AcDbLine
 10
444.6065432862452
 20
154.9659591214723
 30
0.0
 11
435.7018696967847
 21
154.9659591214723
 31
0.0
  0
LINE
  5
34B4
330
4441
100
AcDbEntity
  8
标注
  6
ByBlock
100
AcDbLine
 10
444.6065432862452
 20
171.028951247382
 30
0.0
 11
435.7018696967847
 21
171.028951247382
 31
0.0
  0
LINE
  5
34B5
330
4441
100
AcDbEntity
  8
标注
  6
ByBlock
100
AcDbLine
 10
436.0218696967849
 20
155.6159591214723
 30
0.0
 11
436.0218696967849
 21
160.9557885177677
 31
0.0
  0
LINE
  5
34B6
330
4441
100
AcDbEntity
  8
标注
  6
ByBlock
100
AcDbLine
 10
436.0218696967849
 20
170.378951247382
 30
0.0
 11
436.0218696967849
 21
165.039121851101
 31
0.0
  0
SOLID
  5
34B7
330
4441
100
AcDbEntity
  8
标注
100
AcDbTrace
 10
435.9135363634516
 20
155.6159591214723
 30
0.0
 11
436.1302030301184
 21
155.6159591214723
 31
0.0
 12
436.0218696967849
 22
154.9659591214723
 32
0.0
 13
436.0218696967849
 23
154.9659591214723
 33
0.0
  0
SOLID
  5
34B8
330
4441
100
AcDbEntity
  8
标注
100
AcDbTrace
 10
435.9135363634516
 20
170.378951247382
 30
0.0
 11
436.1302030301184
 21
170.378951247382
 31
0.0
 12
436.0218696967849
 22
171.028951247382
 32
0.0
 13
436.0218696967849
 23
171.028951247382
 33
0.0
  0
INSERT
  5
34B9
330
4441
100
AcDbEntity
  8
0
100
AcDbBlockReference
  2
*U13
 10
0.0
 20
0.0
 30
0.0
  0
POINT
  5
34BA
330
4441
100
AcDbEntity
  8
DEFPOINTS
 62
     0
100
AcDbPoint
 10
445.4865432862452
 20
154.9659591214723
 30
0.0
  0
POINT
  5
34BB
330
4441
100
AcDbEntity
  8
DEFPOINTS
 62
     0
100
AcDbPoint
 10
445.4865432862452
 20
171.028951247382
 30
0.0
  0
POINT
  5
34BC
330
4441
100
AcDbEntity
  8
DEFPOINTS
 62
     0
100
AcDbPoint
 10
436.0218696967849
 20
171.028951247382
 30
0.0
  0
ENDBLK
  5
34B2
330
4441
100
AcDbEntity
  8
0
100
AcDbBlockEnd
  0
BLOCK
  5
4444
330
4443
100
AcDbEntity
  8
0
100
AcDbBlockBegin
  2
*U13
 70
     1
 10
0.0
 20
0.0
 30
0.0
  3
*U13
  1

  0
TEXT
  5
3F0E
330
4443
100
AcDbEntity
  8
标注
100
AcDbText
 10
436.3468696967848
 20
161.1557885177677
 30
0.0
 40
0.65
  1
16 1/8"
 50
90.0
100
AcDbText
  0
ENDBLK
  5
3F10
330
4443
100
AcDbEntity
  8
0
100
AcDbBlockEnd
  0
BLOCK
  5
4446
330
4445
100
AcDbEntity
  8
0
100
AcDbBlockBegin
  2
*D14
 70
     1
 10
0.0
 20
0.0
 30
0.0
  3
*D14
  1

  0
LINE
  5
3570
330
4445
100
AcDbEntity
  8
标注
100
AcDbLine
 10
442.2812503129256
 20
179.9933406007001
 30
0.0
 11
436.0088189754862
 21
179.9933406007001
 31
0.0
  0
LINE
  5
3571
330
4445
100
AcDbEntity
  8
标注
100
AcDbLine
 10
436.657724385966
 20
187.9839170010344
 30
0.0
 11
436.0088189754862
 21
187.9839170010344
 31
0.0
  0
LINE
  5
3572
330
4445
100
AcDbEntity
  8
标注
100
AcDbLine
 10
436.3288189754864
 20
180.6433406007001
 30
0.0
 11
436.3288189754864
 21
183.3552954675338
 31
0.0
  0
LINE
  5
3573
330
4445
100
AcDbEntity
  8
标注
100
AcDbLine
 10
436.3288189754864
 20
187.3339170010343
 30
0.0
 11
436.3288189754864
 21
184.6219621342005
 31
0.0
  0
SOLID
  5
3574
330
4445
100
AcDbEntity
  8
标注
100
AcDbTrace
 10
436.2204856421526
 20
180.6433406007001
 30
0.0
 11
436.4371523088196
 21
180.6433406007001
 31
0.0
 12
436.3288189754864
 22
179.9933406007001
 32
0.0
 13
436.3288189754864
 23
179.9933406007001
 33
0.0
  0
SOLID
  5
3575
330
4445
100
AcDbEntity
  8
标注
100
AcDbTrace
 10
436.2204856421526
 20
187.3339170010343
 30
0.0
 11
436.4371523088196
 21
187.3339170010343
 31
0.0
 12
436.3288189754864
 22
187.9839170010344
 32
0.0
 13
436.3288189754864
 23
187.9839170010344
 33
0.0
  0
INSERT
  5
3576
330
4445
100
AcDbEntity
  8
0
100
AcDbBlockReference
  2
*U15
 10
0.0
 20
0.0
 30
0.0
  0
POINT
  5
3577
330
4445
100
AcDbEntity
  8
DEFPOINTS
 62
     0
100
AcDbPoint
 10
443.1612503129257
 20
179.9933406007001
 30
0.0
  0
POINT
  5
3578
330
4445
100
AcDbEntity
  8
DEFPOINTS
 62
     0
100
AcDbPoint
 10
437.5377243859662
 20
187.9839170010344
 30
0.0
  0
POINT
  5
3579
330
4445
100
AcDbEntity
  8
DEFPOINTS
 62
     0
100
AcDbPoint
 10
436.3288189754864
 20
187.9839170010344
 30
0.0
  0
ENDBLK
  5
34D3
330
4445
100
AcDbEntity
  8
0
100
AcDbBlockEnd
  0
BLOCK
  5
4448
330
4447
100
AcDbEntity
  8
0
100
AcDbBlockBegin
  2
*U15
 70
     1
 10
0.0
 20
0.0
 30
0.0
  3
*U15
  1

  0
TEXT
  5
3F36
330
4447
100
AcDbEntity
  8
标注
100
AcDbText
 10
436.6538189754861
 20
183.5552954675339
 30
0.0
 40
0.65
  1
8"
 50
90.0
100
AcDbText
  0
ENDBLK
  5
3F38
330
4447
100
AcDbEntity
  8
0
100
AcDbBlockEnd
  0
BLOCK
  5
4452
330
4451
100
AcDbEntity
  8
0
100
AcDbBlockBegin
  2
*D16
 70
     1
 10
0.0
 20
0.0
 30
0.0
  3
*D16
  1

  0
LINE
  5
380B
330
4451
100
AcDbEntity
  8
标注
  6
ByBlock
100
AcDbLine
 10
441.5396141523959
 20
153.7848567592661
 30
0.0
 11
434.6236625535586
 21
153.7848567592661
 31
0.0
  0
LINE
  5
380C
330
4451
100
AcDbEntity
  8
标注
  6
ByBlock
100
AcDbLine
 10
441.5396141523959
 20
172.2100536095747
 30
0.0
 11
434.6236625535586
 21
172.2100536095747
 31
0.0
  0
LINE
  5
380D
330
4451
100
AcDbEntity
  8
标注
  6
ByBlock
100
AcDbLine
 10
434.9436625535591
 20
154.4348567592661
 30
0.0
 11
434.9436625535591
 21
160.955788517761
 31
0.0
  0
LINE
  5
380E
330
4451
100
AcDbEntity
  8
标注
  6
ByBlock
100
AcDbLine
 10
434.9436625535591
 20
171.5600536095747
 30
0.0
 11
434.9436625535591
 21
165.0391218510943
 31
0.0
  0
SOLID
  5
380F
330
4451
100
AcDbEntity
  8
标注
100
AcDbTrace
 10
434.8353292202256
 20
154.4348567592661
 30
0.0
 11
435.0519958868924
 21
154.4348567592661
 31
0.0
 12
434.9436625535591
 22
153.7848567592661
 32
0.0
 13
434.9436625535591
 23
153.7848567592661
 33
0.0
  0
SOLID
  5
3810
330
4451
100
AcDbEntity
  8
标注
100
AcDbTrace
 10
434.8353292202256
 20
171.5600536095747
 30
0.0
 11
435.0519958868924
 21
171.5600536095747
 31
0.0
 12
434.9436625535591
 22
172.2100536095747
 32
0.0
 13
434.9436625535591
 23
172.2100536095747
 33
0.0
  0
INSERT
  5
3811
330
4451
100
AcDbEntity
  8
0
100
AcDbBlockReference
  2
*U17
 10
0.0
 20
0.0
 30
0.0
  0
POINT
  5
3812
330
4451
100
AcDbEntity
  8
DEFPOINTS
 62
     0
100
AcDbPoint
 10
442.419614152396
 20
153.7848567592661
 30
0.0
  0
POINT
  5
3813
330
4451
100
AcDbEntity
  8
DEFPOINTS
 62
     0
100
AcDbPoint
 10
442.419614152396
 20
172.2100536095747
 30
0.0
  0
POINT
  5
3814
330
4451
100
AcDbEntity
  8
DEFPOINTS
 62
     0
100
AcDbPoint
 10
434.9436625535591
 20
172.2100536095747
 30
0.0
  0
ENDBLK
  5
3504
330
4451
100
AcDbEntity
  8
0
100
AcDbBlockEnd
  0
BLOCK
  5
4454
330
4453
100
AcDbEntity
  8
0
100
AcDbBlockBegin
  2
*U17
 70
     1
 10
0.0
 20
0.0
 30
0.0
  3
*U17
  1

  0
TEXT
  5
3F55
330
4453
100
AcDbEntity
  8
标注
100
AcDbText
 10
435.2686625535588
 20
161.155788517761
 30
0.0
 40
0.65
  1
18 1/2"
 50
90.0
100
AcDbText
  0
ENDBLK
  5
3F57
330
4453
100
AcDbEntity
  8
0
100
AcDbBlockEnd
  0
BLOCK
  5
4460
330
445F
100
AcDbEntity
  8
0
100
AcDbBlockBegin
  2
*U18
 70
     1
 10
0.0
 20
0.0
 30
0.0
  3
*U18
  1

  0
TEXT
  5
3F49
330
445F
100
AcDbEntity
  8
标注
100
AcDbText
 10
448.6543370278099
 20
176.5639646558375
 30
0.0
 40
0.7874015748031497
  1
FRONT VIEW
100
AcDbText
  0
ENDBLK
  5
3F4B
330
445F
100
AcDbEntity
  8
0
100
AcDbBlockEnd
  0
BLOCK
  5
4462
330
4461
100
AcDbEntity
  8
0
100
AcDbBlockBegin
  2
*U19
 70
     1
 10
0.0
 20
0.0
 30
0.0
  3
*U19
  1

  0
TEXT
  5
3F4D
330
4461
100
AcDbEntity
  8
标注
100
AcDbText
 10
446.9249478288684
 20
147.5695321124926
 30
0.0
 40
0.7874015748031497
  1
OVERHEAD VIEW
100
AcDbText
  0
ENDBLK
  5
3F4F
330
4461
100
AcDbEntity
  8
0
100
AcDbBlockEnd
  0
BLOCK
  5
4464
330
4463
100
AcDbEntity
  8
0
100
AcDbBlockBegin
  2
*U20
 70
     1
 10
0.0
 20
0.0
 30
0.0
  3
*U20
  1

  0
TEXT
  5
3F61
330
4463
100
AcDbEntity
  8
标注
100
AcDbText
 10
448.5331378829473
 20
102.4289209665645
 30
0.0
 40
0.7874015748031497
  1
1/4" 
100
AcDbText
  0
TEXT
  5
3F62
330
4463
100
AcDbEntity
  8
标注
100
AcDbText
 10
451.9452113737608
 20
102.4289209665645
 30
0.0
 40
0.7874015748031497
  1
OVERHANG CUTOUT
100
AcDbText
  0
ENDBLK
  5
3F64
330
4463
100
AcDbEntity
  8
0
100
AcDbBlockEnd
  0
BLOCK
  5
4466
330
4465
100
AcDbEntity
  8
0
100
AcDbBlockBegin
  2
*U21
 70
     1
 10
0.0
 20
0.0
 30
0.0
  3
*U21
  1

  0
TEXT
  5
3F66
330
4465
100
AcDbEntity
  8
标注
100
AcDbText
 10
448.4429035960663
 20
104.3974249035725
 30
0.0
 40
0.7874015748031497
  1
FLUSH CUTOUT
100
AcDbText
  0
ENDBLK
  5
3F68
330
4465
100
AcDbEntity
  8
0
100
AcDbBlockEnd
  0
BLOCK
  5
4468
330
4467
100
AcDbEntity
  8
0
100
AcDbBlockBegin
  2
*U22
 70
     1
 10
0.0
 20
0.0
 30
0.0
  3
*U22
  1

  0
TEXT
  5
3F6A
330
4467
100
AcDbEntity
  8
标注
100
AcDbText
 10
448.5331378829473
 20
106.3659288405804
 30
0.0
 40
0.7874015748031497
  1
1/4" 
100
AcDbText
  0
TEXT
  5
3F6B
330
4467
100
AcDbEntity
  8
标注
100
AcDbText
 10
451.9452113737608
 20
106.3659288405804
 30
0.0
 40
0.7874015748031497
  1
REVEAL CUTOUT
100
AcDbText
  0
ENDBLK
  5
3F6D
330
4467
100
AcDbEntity
  8
0
100
AcDbBlockEnd
  0
BLOCK
  5
446A
330
4469
100
AcDbEntity
  8
0
100
AcDbBlockBegin
  2
*U23
 70
     1
 10
0.0
 20
0.0
 30
0.0
  3
*U23
  1

  0
TEXT
  5
3F7E
330
4469
100
AcDbEntity
  8
标注
100
AcDbText
 10
448.5331378829473
 20
72.09550313691884
 30
0.0
 40
0.7874015748031497
  1
1/4" 
100
AcDbText
  0
TEXT
  5
3F7F
330
4469
100
AcDbEntity
  8
标注
100
AcDbText
 10
451.9452113737608
 20
72.09550313691884
 30
0.0
 40
0.7874015748031497
  1
REVEAL CUTOUT
100
AcDbText
  0
ENDBLK
  5
3F81
330
4469
100
AcDbEntity
  8
0
100
AcDbBlockEnd
  0
BLOCK
  5
446C
330
446B
100
AcDbEntity
  8
0
100
AcDbBlockBegin
  2
*U24
 70
     1
 10
0.0
 20
0.0
 30
0.0
  3
*U24
  1

  0
TEXT
  5
3F93
330
446B
100
AcDbEntity
  8
标注
100
AcDbText
 10
449.6014102680128
 20
38.98337568230097
 30
0.0
 40
0.7874015748031497
  1
FLUSH CUTOUT
100
AcDbText
  0
ENDBLK
  5
3F95
330
446B
100
AcDbEntity
  8
0
100
AcDbBlockEnd
  0
BLOCK
  5
446E
330
446D
100
AcDbEntity
  8
0
100
AcDbBlockBegin
  2
*U25
 70
     1
 10
0.0
 20
0.0
 30
0.0
  3
*U25
  1

  0
TEXT
  5
3FA6
330
446D
100
AcDbEntity
  8
标注
100
AcDbText
 10
448.5331378829473
 20
3.868212891439358
 30
0.0
 40
0.7874015748031497
  1
1/4" 
100
AcDbText
  0
TEXT
  5
3FA7
330
446D
100
AcDbEntity
  8
标注
100
AcDbText
 10
451.9452113737608
 20
3.868212891439358
 30
0.0
 40
0.7874015748031497
  1
OVERHANG CUTOUT
100
AcDbText
  0
ENDBLK
  5
3FA9
330
446D
100
AcDbEntity
  8
0
100
AcDbBlockEnd
  0
BLOCK
  5
4699
330
4698
100
AcDbEntity
  8
0
100
AcDbBlockBegin
  2
_Open30
 70
     0
 10
0.0
 20
0.0
 30
0.0
  3
_Open30
  1

  0
LINE
  5
469A
330
4698
100
AcDbEntity
  8
0
  6
ByBlock
 62
     0
370
    -2
100
AcDbLine
 10
-1.0
 20
0.26794919
 30
0.0
 11
0.0
 21
0.0
 31
0.0
  0
LINE
  5
469B
330
4698
100
AcDbEntity
  8
0
  6
ByBlock
 62
     0
370
    -2
100
AcDbLine
 10
0.0
 20
0.0
 30
0.0
 11
-1.0
 21
-0.26794919
 31
0.0
  0
LINE
  5
469C
330
4698
100
AcDbEntity
  8
0
  6
ByBlock
 62
     0
370
    -2
100
AcDbLine
 10
0.0
 20
0.0
 30
0.0
 11
-1.0
 21
0.0
 31
0.0
  0
ENDBLK
  5
469D
330
4698
100
AcDbEntity
  8
0
100
AcDbBlockEnd
  0
BLOCK
  5
4848
330
4847
100
AcDbEntity
  8
0
100
AcDbBlockBegin
  2
*D27
 70
     1
 10
0.0
 20
0.0
 30
0.0
  3
*D27
  1

  0
LINE
  5
4BDB
330
4847
100
AcDbEntity
  8
0
  6
Continuous
 62
     3
370
    13
100
AcDbLine
 10
515.1620209686101
 20
161.7751243604954
 30
0.0
 11
515.1620209686101
 21
151.2428654346278
 31
0.0
  0
LINE
  5
4BDC
330
4847
100
AcDbEntity
  8
0
  6
Continuous
 62
     3
370
    13
100
AcDbLine
 10
536.6186709686067
 20
161.7751243604954
 30
0.0
 11
536.6186709686067
 21
151.2428654346278
 31
0.0
  0
LINE
  5
4BDD
330
4847
100
AcDbEntity
  8
0
  6
Continuous
 62
     3
370
    13
100
AcDbLine
 10
515.8120209686101
 20
151.5628654346278
 30
0.0
 11
524.1339570797196
 21
151.5628654346278
 31
0.0
  0
LINE
  5
4BDE
330
4847
100
AcDbEntity
  8
0
  6
Continuous
 62
     3
370
    13
100
AcDbLine
 10
535.9686709686067
 20
151.5628654346278
 30
0.0
 11
527.6467348574973
 21
151.5628654346278
 31
0.0
  0
SOLID
  5
4BDF
330
4847
100
AcDbEntity
  8
0
 62
     3
100
AcDbTrace
 10
515.8120209686101
 20
151.6711987679611
 30
0.0
 11
515.8120209686101
 21
151.4545321012945
 31
0.0
 12
515.1620209686101
 22
151.5628654346278
 32
0.0
 13
515.1620209686101
 23
151.5628654346278
 33
0.0
  0
SOLID
  5
4BE0
330
4847
100
AcDbEntity
  8
0
 62
     3
100
AcDbTrace
 10
535.9686709686067
 20
151.6711987679611
 30
0.0
 11
535.9686709686067
 21
151.4545321012945
 31
0.0
 12
536.6186709686067
 22
151.5628654346278
 32
0.0
 13
536.6186709686067
 23
151.5628654346278
 33
0.0
  0
MTEXT
  5
4BE1
330
4847
100
AcDbEntity
  8
0
 62
     3
100
AcDbMText
 10
525.8903459686083
 20
151.5628654346278
 30
0.0
 40
0.65
 41
0.0
 71
     5
 72
     1
  1
\A1;21 1/2"
 73
     1
 44
1.0
1001
ACAD
1000
MTEXTBEGIN
1070
    73
1070
     1
1070
    44
1040
1.0
1070
    74
1070
     0
1000
MTEXTEND
  0
POINT
  5
4BE2
330
4847
100
AcDbEntity
  8
DEFPOINTS
 62
     0
100
AcDbPoint
 10
515.1620209686101
 20
162.6551243604954
 30
0.0
  0
POINT
  5
4BE3
330
4847
100
AcDbEntity
  8
DEFPOINTS
 62
     0
100
AcDbPoint
 10
536.6186709686067
 20
162.6551243604954
 30
0.0
  0
POINT
  5
4BE4
330
4847
100
AcDbEntity
  8
DEFPOINTS
 62
     0
100
AcDbPoint
 10
536.6186709686067
 20
151.5628654346278
 30
0.0
  0
ENDBLK
  5
4849
330
4847
100
AcDbEntity
  8
0
100
AcDbBlockEnd
  0
BLOCK
  5
4856
330
4855
100
AcDbEntity
  8
0
100
AcDbBlockBegin
  2
*D28
 70
     1
 10
0.0
 20
0.0
 30
0.0
  3
*D28
  1

  0
LINE
  5
4BE5
330
4855
100
AcDbEntity
  8
0
  6
Continuous
 62
     3
370
    13
100
AcDbLine
 10
514.1974559686101
 20
161.7751243604954
 30
0.0
 11
514.1974559686101
 21
149.5375210957591
 31
0.0
  0
LINE
  5
4BE6
330
4855
100
AcDbEntity
  8
0
  6
Continuous
 62
     3
370
    13
100
AcDbLine
 10
537.5832359686063
 20
161.7751243604954
 30
0.0
 11
537.5832359686063
 21
149.5375210957591
 31
0.0
  0
LINE
  5
4BE7
330
4855
100
AcDbEntity
  8
0
  6
Continuous
 62
     3
370
    13
100
AcDbLine
 10
514.8474559686101
 20
149.8575210957591
 30
0.0
 11
524.1339570797191
 21
149.8575210957591
 31
0.0
  0
LINE
  5
4BE8
330
4855
100
AcDbEntity
  8
0
  6
Continuous
 62
     3
370
    13
100
AcDbLine
 10
536.9332359686064
 20
149.8575210957591
 30
0.0
 11
527.646734857497
 21
149.8575210957591
 31
0.0
  0
SOLID
  5
4BE9
330
4855
100
AcDbEntity
  8
0
 62
     3
100
AcDbTrace
 10
514.8474559686101
 20
149.9658544290924
 30
0.0
 11
514.8474559686101
 21
149.7491877624258
 31
0.0
 12
514.1974559686101
 22
149.8575210957591
 32
0.0
 13
514.1974559686101
 23
149.8575210957591
 33
0.0
  0
SOLID
  5
4BEA
330
4855
100
AcDbEntity
  8
0
 62
     3
100
AcDbTrace
 10
536.9332359686064
 20
149.9658544290924
 30
0.0
 11
536.9332359686064
 21
149.7491877624258
 31
0.0
 12
537.5832359686063
 22
149.8575210957591
 32
0.0
 13
537.5832359686063
 23
149.8575210957591
 33
0.0
  0
MTEXT
  5
4BEB
330
4855
100
AcDbEntity
  8
0
 62
     3
100
AcDbMText
 10
525.8903459686081
 20
149.8575210957591
 30
0.0
 40
0.65
 41
0.0
 71
     5
 72
     1
  1
\A1;23 3/8"
 73
     1
 44
1.0
1001
ACAD
1000
MTEXTBEGIN
1070
    73
1070
     1
1070
    44
1040
1.0
1070
    74
1070
     0
1000
MTEXTEND
  0
POINT
  5
4BEC
330
4855
100
AcDbEntity
  8
DEFPOINTS
 62
     0
100
AcDbPoint
 10
514.1974559686101
 20
162.6551243604954
 30
0.0
  0
POINT
  5
4BED
330
4855
100
AcDbEntity
  8
DEFPOINTS
 62
     0
100
AcDbPoint
 10
537.5832359686063
 20
162.6551243604954
 30
0.0
  0
POINT
  5
4BEE
330
4855
100
AcDbEntity
  8
DEFPOINTS
 62
     0
100
AcDbPoint
 10
537.5832359686063
 20
149.8575210957591
 30
0.0
  0
ENDBLK
  5
4857
330
4855
100
AcDbEntity
  8
0
100
AcDbBlockEnd
  0
BLOCK
  5
4864
330
4863
100
AcDbEntity
  8
0
100
AcDbBlockBegin
  2
*D29
 70
     1
 10
0.0
 20
0.0
 30
0.0
  3
*D29
  1

  0
LINE
  5
4BEF
330
4863
100
AcDbEntity
  8
0
  6
Continuous
 62
     3
370
    13
100
AcDbLine
 10
526.7703459691722
 20
154.6826993605061
 30
0.0
 11
539.7498456205612
 21
154.6826993605061
 31
0.0
  0
LINE
  5
4BF0
330
4863
100
AcDbEntity
  8
0
  6
Continuous
 62
     3
370
    13
100
AcDbLine
 10
526.770345968612
 20
170.6275493604992
 30
0.0
 11
539.7498456205612
 21
170.6275493604992
 31
0.0
  0
LINE
  5
4BF1
330
4863
100
AcDbEntity
  8
0
  6
Continuous
 62
     3
370
    13
100
AcDbLine
 10
539.4298456205611
 20
155.3326993605061
 30
0.0
 11
539.4298456205611
 21
161.8520688049471
 31
0.0
  0
LINE
  5
4BF2
330
4863
100
AcDbEntity
  8
0
  6
Continuous
 62
     3
370
    13
100
AcDbLine
 10
539.4298456205611
 20
169.9775493604992
 30
0.0
 11
539.4298456205611
 21
163.4581799160582
 31
0.0
  0
SOLID
  5
4BF3
330
4863
100
AcDbEntity
  8
0
 62
     3
100
AcDbTrace
 10
539.3215122872277
 20
155.3326993605061
 30
0.0
 11
539.5381789538945
 21
155.3326993605061
 31
0.0
 12
539.4298456205611
 22
154.6826993605061
 32
0.0
 13
539.4298456205611
 23
154.6826993605061
 33
0.0
  0
SOLID
  5
4BF4
330
4863
100
AcDbEntity
  8
0
 62
     3
100
AcDbTrace
 10
539.3215122872277
 20
169.9775493604992
 30
0.0
 11
539.5381789538945
 21
169.9775493604992
 31
0.0
 12
539.4298456205611
 22
170.6275493604992
 32
0.0
 13
539.4298456205611
 23
170.6275493604992
 33
0.0
  0
MTEXT
  5
4BF5
330
4863
100
AcDbEntity
  8
0
 62
     3
100
AcDbMText
 10
539.4298456205611
 20
162.6551243605026
 30
0.0
 40
0.65
 41
0.0
 71
     5
 72
     1
  1
\A1;16"
 11
0.0000000000000001
 21
1.0
 31
0.0
 73
     1
 44
1.0
1001
ACAD
1000
MTEXTBEGIN
1070
    73
1070
     1
1070
    44
1040
1.0
1070
    74
1070
     0
1000
MTEXTEND
  0
POINT
  5
4BF6
330
4863
100
AcDbEntity
  8
DEFPOINTS
 62
     0
100
AcDbPoint
 10
525.8903459691722
 20
154.6826993605061
 30
0.0
  0
POINT
  5
4BF7
330
4863
100
AcDbEntity
  8
DEFPOINTS
 62
     0
100
AcDbPoint
 10
525.890345968612
 20
170.6275493604992
 30
0.0
  0
POINT
  5
4BF8
330
4863
100
AcDbEntity
  8
DEFPOINTS
 62
     0
100
AcDbPoint
 10
539.4298456205611
 20
170.6275493604992
 30
0.0
  0
ENDBLK
  5
4865
330
4863
100
AcDbEntity
  8
0
100
AcDbBlockEnd
  0
BLOCK
  5
4872
330
4871
100
AcDbEntity
  8
0
100
AcDbBlockBegin
  2
*D30
 70
     1
 10
0.0
 20
0.0
 30
0.0
  3
*D30
  1

  0
LINE
  5
4BF9
330
4871
100
AcDbEntity
  8
0
  6
Continuous
 62
     3
370
    13
100
AcDbLine
 10
526.7703459691722
 20
153.7575043605061
 30
0.0
 11
541.2693633406436
 21
153.7575043605061
 31
0.0
  0
LINE
  5
4BFA
330
4871
100
AcDbEntity
  8
0
  6
Continuous
 62
     3
370
    13
100
AcDbLine
 10
526.770345968612
 20
171.5527443604992
 30
0.0
 11
541.2693633406436
 21
171.5527443604992
 31
0.0
  0
LINE
  5
4BFB
330
4871
100
AcDbEntity
  8
0
  6
Continuous
 62
     3
370
    13
100
AcDbLine
 10
540.9493633406436
 20
154.4075043605061
 30
0.0
 11
540.9493633406436
 21
160.9276243605026
 31
0.0
  0
LINE
  5
4BFC
330
4871
100
AcDbEntity
  8
0
  6
Continuous
 62
     3
370
    13
100
AcDbLine
 10
540.9493633406436
 20
170.9027443604992
 30
0.0
 11
540.9493633406436
 21
164.3826243605025
 31
0.0
  0
SOLID
  5
4BFD
330
4871
100
AcDbEntity
  8
0
 62
     3
100
AcDbTrace
 10
540.8410300073102
 20
154.4075043605061
 30
0.0
 11
541.0576966739768
 21
154.4075043605061
 31
0.0
 12
540.9493633406436
 22
153.7575043605061
 32
0.0
 13
540.9493633406436
 23
153.7575043605061
 33
0.0
  0
SOLID
  5
4BFE
330
4871
100
AcDbEntity
  8
0
 62
     3
100
AcDbTrace
 10
540.8410300073102
 20
170.9027443604992
 30
0.0
 11
541.0576966739768
 21
170.9027443604992
 31
0.0
 12
540.9493633406436
 22
171.5527443604992
 32
0.0
 13
540.9493633406436
 23
171.5527443604992
 33
0.0
  0
MTEXT
  5
4BFF
330
4871
100
AcDbEntity
  8
0
 62
     3
100
AcDbMText
 10
540.9493633406436
 20
162.6551243605026
 30
0.0
 40
0.65
 41
0.0
 71
     5
 72
     1
  1
\A1;17 3/4"
 11
0.0000000000000001
 21
1.0
 31
0.0
 73
     1
 44
1.0
1001
ACAD
1000
MTEXTBEGIN
1070
    73
1070
     1
1070
    44
1040
1.0
1070
    74
1070
     0
1000
MTEXTEND
  0
POINT
  5
4C00
330
4871
100
AcDbEntity
  8
DEFPOINTS
 62
     0
100
AcDbPoint
 10
525.8903459691722
 20
153.7575043605061
 30
0.0
  0
POINT
  5
4C01
330
4871
100
AcDbEntity
  8
DEFPOINTS
 62
     0
100
AcDbPoint
 10
525.890345968612
 20
171.5527443604992
 30
0.0
  0
POINT
  5
4C02
330
4871
100
AcDbEntity
  8
DEFPOINTS
 62
     0
100
AcDbPoint
 10
540.9493633406436
 20
171.5527443604992
 30
0.0
  0
ENDBLK
  5
4873
330
4871
100
AcDbEntity
  8
0
100
AcDbBlockEnd
  0
BLOCK
  5
4880
330
487F
100
AcDbEntity
  8
0
100
AcDbBlockBegin
  2
*D31
 70
     1
 10
0.0
 20
0.0
 30
0.0
  3
*D31
  1

  0
LINE
  5
4C03
330
487F
100
AcDbEntity
  8
0
  6
Continuous
 62
     3
370
    13
100
AcDbLine
 10
538.4829209686097
 20
185.584734990396
 30
0.0
 11
539.615039465762
 21
185.584734990396
 31
0.0
  0
LINE
  5
4C04
330
487F
100
AcDbEntity
  8
0
  6
Continuous
 62
     3
370
    13
100
AcDbLine
 10
537.9672443072871
 20
180.0729311028881
 30
0.0
 11
539.615039465762
 21
180.0729311028881
 31
0.0
  0
LINE
  5
4C05
330
487F
100
AcDbEntity
  8
0
  6
Continuous
 62
     3
370
    13
100
AcDbLine
 10
539.295039465762
 20
184.934734990396
 30
0.0
 11
539.295039465762
 21
184.3504997133088
 31
0.0
  0
LINE
  5
4C06
330
487F
100
AcDbEntity
  8
0
  6
Continuous
 62
     3
370
    13
100
AcDbLine
 10
539.295039465762
 20
180.7229311028881
 30
0.0
 11
539.295039465762
 21
181.3071663799754
 31
0.0
  0
SOLID
  5
4C07
330
487F
100
AcDbEntity
  8
0
 62
     3
100
AcDbTrace
 10
539.1867061324286
 20
184.934734990396
 30
0.0
 11
539.4033727990953
 21
184.934734990396
 31
0.0
 12
539.295039465762
 22
185.584734990396
 32
0.0
 13
539.295039465762
 23
185.584734990396
 33
0.0
  0
SOLID
  5
4C08
330
487F
100
AcDbEntity
  8
0
 62
     3
100
AcDbTrace
 10
539.1867061324286
 20
180.7229311028881
 30
0.0
 11
539.4033727990953
 21
180.7229311028881
 31
0.0
 12
539.295039465762
 22
180.0729311028881
 32
0.0
 13
539.295039465762
 23
180.0729311028881
 33
0.0
  0
MTEXT
  5
4C09
330
487F
100
AcDbEntity
  8
0
 62
     3
100
AcDbMText
 10
539.295039465762
 20
182.8288330466422
 30
0.0
 40
0.65
 41
0.0
 71
     5
 72
     1
  1
\A1;5 1/2"
 11
0.0000000000000001
 21
1.0
 31
0.0
 73
     1
 44
1.0
1001
ACAD
1000
MTEXTBEGIN
1070
    73
1070
     1
1070
    44
1040
1.0
1070
    74
1070
     0
1000
MTEXTEND
  0
POINT
  5
4C0A
330
487F
100
AcDbEntity
  8
DEFPOINTS
 62
     0
100
AcDbPoint
 10
537.6029209686097
 20
185.584734990396
 30
0.0
  0
POINT
  5
4C0B
330
487F
100
AcDbEntity
  8
DEFPOINTS
 62
     0
100
AcDbPoint
 10
537.0872443072872
 20
180.0729311028881
 30
0.0
  0
POINT
  5
4C0C
330
487F
100
AcDbEntity
  8
DEFPOINTS
 62
     0
100
AcDbPoint
 10
539.295039465762
 20
180.0729311028881
 30
0.0
  0
ENDBLK
  5
4881
330
487F
100
AcDbEntity
  8
0
100
AcDbBlockEnd
  0
BLOCK
  5
4B1E
330
4B1D
100
AcDbEntity
  8
0
 48
5.0
100
AcDbBlockBegin
  2
GENAXEH
 70
     0
 10
0.0
 20
0.0
 30
0.0
  3
GENAXEH
  1

  0
LINE
  5
4B1F
330
4B1D
100
AcDbEntity
  8
0
100
AcDbLine
 10
-1.0
 20
0.0
 30
0.0
 11
1.0
 21
0.0
 31
0.0
  0
ENDBLK
  5
4B20
330
4B1D
100
AcDbEntity
  8
0
 48
5.0
100
AcDbBlockEnd
  0
BLOCK
  5
4BC0
330
4BBF
100
AcDbEntity
  8
0
100
AcDbBlockBegin
  2
*D33
 70
     1
 10
0.0
 20
0.0
 30
0.0
  3
*D33
  1

  0
LINE
  5
4C0D
330
4BBF
100
AcDbEntity
  8
0
  6
Continuous
 62
     3
370
    13
100
AcDbLine
 10
570.8453083029712
 20
155.5827600955841
 30
0.0
 11
570.8453083029712
 21
149.7694299400397
 31
0.0
  0
LINE
  5
4C0E
330
4BBF
100
AcDbEntity
  8
0
  6
Continuous
 62
     3
370
    13
100
AcDbLine
 10
598.8373783029715
 20
155.5827600955841
 30
0.0
 11
598.8373783029715
 21
149.7694299400397
 31
0.0
  0
LINE
  5
4C0F
330
4BBF
100
AcDbEntity
  8
0
  6
Continuous
 62
     3
370
    13
100
AcDbLine
 10
571.4953083029712
 20
150.0894299400397
 30
0.0
 11
584.009398858527
 21
150.0894299400397
 31
0.0
  0
LINE
  5
4C10
330
4BBF
100
AcDbEntity
  8
0
  6
Continuous
 62
     3
370
    13
100
AcDbLine
 10
598.1873783029715
 20
150.0894299400397
 30
0.0
 11
585.6732877474157
 21
150.0894299400397
 31
0.0
  0
SOLID
  5
4C11
330
4BBF
100
AcDbEntity
  8
0
 62
     3
100
AcDbTrace
 10
571.4953083029712
 20
150.197763273373
 30
0.0
 11
571.4953083029712
 21
149.9810966067064
 31
0.0
 12
570.8453083029712
 22
150.0894299400397
 32
0.0
 13
570.8453083029712
 23
150.0894299400397
 33
0.0
  0
SOLID
  5
4C12
330
4BBF
100
AcDbEntity
  8
0
 62
     3
100
AcDbTrace
 10
598.1873783029715
 20
150.197763273373
 30
0.0
 11
598.1873783029715
 21
149.9810966067064
 31
0.0
 12
598.8373783029715
 22
150.0894299400397
 32
0.0
 13
598.8373783029715
 23
150.0894299400397
 33
0.0
  0
MTEXT
  5
4C13
330
4BBF
100
AcDbEntity
  8
0
 62
     3
100
AcDbMText
 10
584.8413433029714
 20
150.0894299400397
 30
0.0
 40
0.65
 41
0.0
 71
     5
 72
     1
  1
\A1;28"
 73
     1
 44
1.0
1001
ACAD
1000
MTEXTBEGIN
1070
    73
1070
     1
1070
    44
1040
1.0
1070
    74
1070
     0
1000
MTEXTEND
  0
POINT
  5
4C14
330
4BBF
100
AcDbEntity
  8
DEFPOINTS
 62
     0
100
AcDbPoint
 10
570.8453083029712
 20
156.4627600955841
 30
0.0
  0
POINT
  5
4C15
330
4BBF
100
AcDbEntity
  8
DEFPOINTS
 62
     0
100
AcDbPoint
 10
598.8373783029715
 20
156.4627600955841
 30
0.0
  0
POINT
  5
4C16
330
4BBF
100
AcDbEntity
  8
DEFPOINTS
 62
     0
100
AcDbPoint
 10
598.8373783029715
 20
150.0894299400397
 30
0.0
  0
ENDBLK
  5
4BC1
330
4BBF
100
AcDbEntity
  8
0
100
AcDbBlockEnd
  0
BLOCK
  5
4BCE
330
4BCD
100
AcDbEntity
  8
0
100
AcDbBlockBegin
  2
*D34
 70
     1
 10
0.0
 20
0.0
 30
0.0
  3
*D34
  1

  0
LINE
  5
4D2A
330
4BCD
100
AcDbEntity
  8
0
  6
Continuous
 62
     3
370
    13
100
AcDbLine
 10
569.8610583029699
 20
155.5827600955877
 30
0.0
 11
569.8610583029699
 21
147.9168609550064
 31
0.0
  0
LINE
  5
4D2B
330
4BCD
100
AcDbEntity
  8
0
  6
Continuous
 62
     3
370
    13
100
AcDbLine
 10
599.8216283029726
 20
155.5827600955877
 30
0.0
 11
599.8216283029726
 21
147.9168609550064
 31
0.0
  0
LINE
  5
4D2C
330
4BCD
100
AcDbEntity
  8
0
  6
Continuous
 62
     3
370
    13
100
AcDbLine
 10
570.5110583029699
 20
148.2368609550064
 30
0.0
 11
584.013009969638
 21
148.2368609550064
 31
0.0
  0
LINE
  5
4D2D
330
4BCD
100
AcDbEntity
  8
0
  6
Continuous
 62
     3
370
    13
100
AcDbLine
 10
599.1716283029727
 20
148.2368609550064
 30
0.0
 11
585.6696766363048
 21
148.2368609550064
 31
0.0
  0
SOLID
  5
4D2E
330
4BCD
100
AcDbEntity
  8
0
 62
     3
100
AcDbTrace
 10
570.5110583029699
 20
148.3451942883396
 30
0.0
 11
570.5110583029699
 21
148.1285276216731
 31
0.0
 12
569.8610583029699
 22
148.2368609550064
 32
0.0
 13
569.8610583029699
 23
148.2368609550064
 33
0.0
  0
SOLID
  5
4D2F
330
4BCD
100
AcDbEntity
  8
0
 62
     3
100
AcDbTrace
 10
599.1716283029727
 20
148.3451942883396
 30
0.0
 11
599.1716283029727
 21
148.1285276216731
 31
0.0
 12
599.8216283029726
 22
148.2368609550064
 32
0.0
 13
599.8216283029726
 23
148.2368609550064
 33
0.0
  0
MTEXT
  5
4D30
330
4BCD
100
AcDbEntity
  8
0
 62
     3
100
AcDbMText
 10
584.8413433029714
 20
148.2368609550064
 30
0.0
 40
0.65
 41
0.0
 71
     5
 72
     1
  1
\A1;30"
 73
     1
 44
1.0
1001
ACAD
1000
MTEXTBEGIN
1070
    73
1070
     1
1070
    44
1040
1.0
1070
    74
1070
     0
1000
MTEXTEND
  0
POINT
  5
4D31
330
4BCD
100
AcDbEntity
  8
DEFPOINTS
 62
     0
100
AcDbPoint
 10
569.8610583029699
 20
156.4627600955878
 30
0.0
  0
POINT
  5
4D32
330
4BCD
100
AcDbEntity
  8
DEFPOINTS
 62
     0
100
AcDbPoint
 10
599.8216283029726
 20
156.4627600955878
 30
0.0
  0
POINT
  5
4D33
330
4BCD
100
AcDbEntity
  8
DEFPOINTS
 62
     0
100
AcDbPoint
 10
599.8216283029726
 20
148.2368609550064
 30
0.0
  0
ENDBLK
  5
4BCF
330
4BCD
100
AcDbEntity
  8
0
100
AcDbBlockEnd
  0
BLOCK
  5
4C23
330
4C22
100
AcDbEntity
  8
0
100
AcDbBlockBegin
  2
*D35
 70
     1
 10
0.0
 20
0.0
 30
0.0
  3
*D35
  1

  0
LINE
  5
4C25
330
4C22
100
AcDbEntity
  8
0
  6
Continuous
 62
     3
370
    13
100
AcDbLine
 10
595.7803783029698
 20
152.5257600955824
 30
0.0
 11
602.4015966024534
 21
152.5257600955824
 31
0.0
  0
LINE
  5
4C26
330
4C22
100
AcDbEntity
  8
0
  6
Continuous
 62
     3
370
    13
100
AcDbLine
 10
595.7803783029698
 20
168.6674600955898
 30
0.0
 11
602.4015966024534
 21
168.6674600955898
 31
0.0
  0
LINE
  5
4C27
330
4C22
100
AcDbEntity
  8
0
  6
Continuous
 62
     3
370
    13
100
AcDbLine
 10
602.0815966024533
 20
153.1757600955824
 30
0.0
 11
602.0815966024533
 21
158.8691100955861
 31
0.0
  0
LINE
  5
4C28
330
4C22
100
AcDbEntity
  8
0
  6
Continuous
 62
     3
370
    13
100
AcDbLine
 10
602.0815966024533
 20
168.0174600955898
 30
0.0
 11
602.0815966024533
 21
162.3241100955861
 31
0.0
  0
SOLID
  5
4C29
330
4C22
100
AcDbEntity
  8
0
 62
     3
100
AcDbTrace
 10
601.97326326912
 20
153.1757600955824
 30
0.0
 11
602.1899299357867
 21
153.1757600955824
 31
0.0
 12
602.0815966024533
 22
152.5257600955824
 32
0.0
 13
602.0815966024533
 23
152.5257600955824
 33
0.0
  0
SOLID
  5
4C2A
330
4C22
100
AcDbEntity
  8
0
 62
     3
100
AcDbTrace
 10
601.97326326912
 20
168.0174600955898
 30
0.0
 11
602.1899299357867
 21
168.0174600955898
 31
0.0
 12
602.0815966024533
 22
168.6674600955898
 32
0.0
 13
602.0815966024533
 23
168.6674600955898
 33
0.0
  0
MTEXT
  5
4C2B
330
4C22
100
AcDbEntity
  8
0
 62
     3
100
AcDbMText
 10
602.0815966024533
 20
160.5966100955862
 30
0.0
 40
0.65
 41
0.0
 71
     5
 72
     1
  1
\A1;16 1/8"
 11
0.0000000000000001
 21
1.0
 31
0.0
 73
     1
 44
1.0
1001
ACAD
1000
MTEXTBEGIN
1070
    73
1070
     1
1070
    44
1040
1.0
1070
    74
1070
     0
1000
MTEXTEND
  0
POINT
  5
4C2C
330
4C22
100
AcDbEntity
  8
DEFPOINTS
 62
     0
100
AcDbPoint
 10
594.9003783029698
 20
152.5257600955824
 30
0.0
  0
POINT
  5
4C2D
330
4C22
100
AcDbEntity
  8
DEFPOINTS
 62
     0
100
AcDbPoint
 10
594.9003783029698
 20
168.6674600955898
 30
0.0
  0
POINT
  5
4C2E
330
4C22
100
AcDbEntity
  8
DEFPOINTS
 62
     0
100
AcDbPoint
 10
602.0815966024533
 20
168.6674600955898
 30
0.0
  0
ENDBLK
  5
4C24
330
4C22
100
AcDbEntity
  8
0
100
AcDbBlockEnd
  0
BLOCK
  5
4C31
330
4C30
100
AcDbEntity
  8
0
100
AcDbBlockBegin
  2
*D36
 70
     1
 10
0.0
 20
0.0
 30
0.0
  3
*D36
  1

  0
LINE
  5
4C33
330
4C30
100
AcDbEntity
  8
0
  6
Continuous
 62
     3
370
    13
100
AcDbLine
 10
595.7803783029734
 20
151.5415100955883
 30
0.0
 11
603.9278928909359
 21
151.5415100955883
 31
0.0
  0
LINE
  5
4C34
330
4C30
100
AcDbEntity
  8
0
  6
Continuous
 62
     3
370
    13
100
AcDbLine
 10
595.7803783029734
 20
169.6517100955839
 30
0.0
 11
603.9278928909359
 21
169.6517100955839
 31
0.0
  0
LINE
  5
4C35
330
4C30
100
AcDbEntity
  8
0
  6
Continuous
 62
     3
370
    13
100
AcDbLine
 10
603.6078928909359
 20
152.1915100955884
 30
0.0
 11
603.6078928909359
 21
158.8691100955861
 31
0.0
  0
LINE
  5
4C36
330
4C30
100
AcDbEntity
  8
0
  6
Continuous
 62
     3
370
    13
100
AcDbLine
 10
603.6078928909359
 20
169.0017100955839
 30
0.0
 11
603.6078928909359
 21
162.3241100955861
 31
0.0
  0
SOLID
  5
4C37
330
4C30
100
AcDbEntity
  8
0
 62
     3
100
AcDbTrace
 10
603.4995595576027
 20
152.1915100955884
 30
0.0
 11
603.7162262242692
 21
152.1915100955884
 31
0.0
 12
603.6078928909359
 22
151.5415100955883
 32
0.0
 13
603.6078928909359
 23
151.5415100955883
 33
0.0
  0
SOLID
  5
4C38
330
4C30
100
AcDbEntity
  8
0
 62
     3
100
AcDbTrace
 10
603.4995595576027
 20
169.0017100955839
 30
0.0
 11
603.7162262242692
 21
169.0017100955839
 31
0.0
 12
603.6078928909359
 22
169.6517100955839
 32
0.0
 13
603.6078928909359
 23
169.6517100955839
 33
0.0
  0
MTEXT
  5
4C39
330
4C30
100
AcDbEntity
  8
0
 62
     3
100
AcDbMText
 10
603.6078928909359
 20
160.5966100955862
 30
0.0
 40
0.65
 41
0.0
 71
     5
 72
     1
  1
\A1;18 1/8"
 11
0.0000000000000001
 21
1.0
 31
0.0
 73
     1
 44
1.0
1001
ACAD
1000
MTEXTBEGIN
1070
    73
1070
     1
1070
    44
1040
1.0
1070
    74
1070
     0
1000
MTEXTEND
  0
POINT
  5
4C3A
330
4C30
100
AcDbEntity
  8
DEFPOINTS
 62
     0
100
AcDbPoint
 10
594.9003783029734
 20
151.5415100955883
 30
0.0
  0
POINT
  5
4C3B
330
4C30
100
AcDbEntity
  8
DEFPOINTS
 62
     0
100
AcDbPoint
 10
594.9003783029734
 20
169.6517100955839
 30
0.0
  0
POINT
  5
4C3C
330
4C30
100
AcDbEntity
  8
DEFPOINTS
 62
     0
100
AcDbPoint
 10
603.6078928909359
 20
169.6517100955839
 30
0.0
  0
ENDBLK
  5
4C32
330
4C30
100
AcDbEntity
  8
0
100
AcDbBlockEnd
  0
BLOCK
  5
4C3F
330
4C3E
100
AcDbEntity
  8
0
100
AcDbBlockBegin
  2
*D37
 70
     1
 10
0.0
 20
0.0
 30
0.0
  3
*D37
  1

  0
LINE
  5
4C41
330
4C3E
100
AcDbEntity
  8
0
  6
Continuous
 62
     3
370
    13
100
AcDbLine
 10
600.7651588172006
 20
185.6195213068913
 30
0.0
 11
602.2699370568947
 21
185.6195213068913
 31
0.0
  0
LINE
  5
4C42
330
4C3E
100
AcDbEntity
  8
0
  6
Continuous
 62
     3
370
    13
100
AcDbLine
 10
600.7651588172006
 20
180.1195213068913
 30
0.0
 11
602.2699370568947
 21
180.1195213068913
 31
0.0
  0
LINE
  5
4C43
330
4C3E
100
AcDbEntity
  8
0
  6
Continuous
 62
     3
370
    13
100
AcDbLine
 10
601.9499370568945
 20
184.9695213068913
 30
0.0
 11
601.9499370568945
 21
184.391187973558
 31
0.0
  0
LINE
  5
4C44
330
4C3E
100
AcDbEntity
  8
0
  6
Continuous
 62
     3
370
    13
100
AcDbLine
 10
601.9499370568945
 20
180.7695213068913
 30
0.0
 11
601.9499370568945
 21
181.3478546402246
 31
0.0
  0
SOLID
  5
4C45
330
4C3E
100
AcDbEntity
  8
0
 62
     3
100
AcDbTrace
 10
601.8416037235612
 20
184.9695213068913
 30
0.0
 11
602.058270390228
 21
184.9695213068913
 31
0.0
 12
601.9499370568945
 22
185.6195213068913
 32
0.0
 13
601.9499370568945
 23
185.6195213068913
 33
0.0
  0
SOLID
  5
4C46
330
4C3E
100
AcDbEntity
  8
0
 62
     3
100
AcDbTrace
 10
601.8416037235612
 20
180.7695213068913
 30
0.0
 11
602.058270390228
 21
180.7695213068913
 31
0.0
 12
601.9499370568945
 22
180.1195213068913
 32
0.0
 13
601.9499370568945
 23
180.1195213068913
 33
0.0
  0
MTEXT
  5
4C47
330
4C3E
100
AcDbEntity
  8
0
 62
     3
100
AcDbMText
 10
601.9499370568945
 20
182.8695213068914
 30
0.0
 40
0.65
 41
0.0
 71
     5
 72
     1
  1
\A1;5 1/2"
 11
0.0000000000000001
 21
1.0
 31
0.0
 73
     1
 44
1.0
1001
ACAD
1000
MTEXTBEGIN
1070
    73
1070
     1
1070
    44
1040
1.0
1070
    74
1070
     0
1000
MTEXTEND
  0
POINT
  5
4C48
330
4C3E
100
AcDbEntity
  8
DEFPOINTS
 62
     0
100
AcDbPoint
 10
599.8851588172006
 20
185.6195213068913
 30
0.0
  0
POINT
  5
4C49
330
4C3E
100
AcDbEntity
  8
DEFPOINTS
 62
     0
100
AcDbPoint
 10
599.8851588172006
 20
180.1195213068913
 30
0.0
  0
POINT
  5
4C4A
330
4C3E
100
AcDbEntity
  8
DEFPOINTS
 62
     0
100
AcDbPoint
 10
601.9499370568945
 20
180.1195213068913
 30
0.0
  0
ENDBLK
  5
4C40
330
4C3E
100
AcDbEntity
  8
0
100
AcDbBlockEnd
  0
BLOCK
  5
4F2F
330
4F2E
100
AcDbEntity
  8
0
100
AcDbBlockBegin
  2
*D38
 70
     1
 10
0.0
 20
0.0
 30
0.0
  3
*D38
  1

  0
LINE
  5
4F31
330
4F2E
100
AcDbEntity
  8
0
  6
Continuous
 62
     3
370
    13
100
AcDbLine
 10
637.7239743344002
 20
159.279779478603
 30
0.0
 11
637.7239743344002
 21
147.5870487193744
 31
0.0
  0
LINE
  5
4F32
330
4F2E
100
AcDbEntity
  8
0
  6
Continuous
 62
     3
370
    13
100
AcDbLine
 10
653.4719743344035
 20
159.279779478603
 30
0.0
 11
653.4719743344035
 21
147.5870487193744
 31
0.0
  0
LINE
  5
4F33
330
4F2E
100
AcDbEntity
  8
0
  6
Continuous
 62
     3
370
    13
100
AcDbLine
 10
638.3739743344002
 20
147.9070487193744
 30
0.0
 11
643.8704743344018
 21
147.9070487193744
 31
0.0
  0
LINE
  5
4F34
330
4F2E
100
AcDbEntity
  8
0
  6
Continuous
 62
     3
370
    13
100
AcDbLine
 10
652.8219743344035
 20
147.9070487193744
 30
0.0
 11
647.3254743344019
 21
147.9070487193744
 31
0.0
  0
SOLID
  5
4F35
330
4F2E
100
AcDbEntity
  8
0
 62
     3
100
AcDbTrace
 10
638.3739743344002
 20
148.0153820527077
 30
0.0
 11
638.3739743344002
 21
147.7987153860411
 31
0.0
 12
637.7239743344002
 22
147.9070487193744
 32
0.0
 13
637.7239743344002
 23
147.9070487193744
 33
0.0
  0
SOLID
  5
4F36
330
4F2E
100
AcDbEntity
  8
0
 62
     3
100
AcDbTrace
 10
652.8219743344035
 20
148.0153820527077
 30
0.0
 11
652.8219743344035
 21
147.7987153860411
 31
0.0
 12
653.4719743344035
 22
147.9070487193744
 32
0.0
 13
653.4719743344035
 23
147.9070487193744
 33
0.0
  0
MTEXT
  5
4F37
330
4F2E
100
AcDbEntity
  8
0
 62
     3
100
AcDbMText
 10
645.5979743344019
 20
147.9070487193744
 30
0.0
 40
0.65
 41
0.0
 71
     5
 72
     1
  1
\A1;15 3/4"
 73
     1
 44
1.0
1001
ACAD
1000
MTEXTBEGIN
1070
    73
1070
     1
1070
    44
1040
1.0
1070
    74
1070
     0
1000
MTEXTEND
  0
POINT
  5
4F38
330
4F2E
100
AcDbEntity
  8
DEFPOINTS
 62
     0
100
AcDbPoint
 10
637.7239743344002
 20
160.159779478603
 30
0.0
  0
POINT
  5
4F39
330
4F2E
100
AcDbEntity
  8
DEFPOINTS
 62
     0
100
AcDbPoint
 10
653.4719743344035
 20
160.159779478603
 30
0.0
  0
POINT
  5
4F3A
330
4F2E
100
AcDbEntity
  8
DEFPOINTS
 62
     0
100
AcDbPoint
 10
653.4719743344035
 20
147.9070487193744
 30
0.0
  0
ENDBLK
  5
4F30
330
4F2E
100
AcDbEntity
  8
0
100
AcDbBlockEnd
  0
BLOCK
  5
4F3D
330
4F3C
100
AcDbEntity
  8
0
100
AcDbBlockBegin
  2
*D39
 70
     1
 10
0.0
 20
0.0
 30
0.0
  3
*D39
  1

  0
LINE
  5
4F3F
330
4F3C
100
AcDbEntity
  8
0
  6
Continuous
 62
     3
370
    13
100
AcDbLine
 10
654.7396883344036
 20
158.1774194786022
 30
0.0
 11
654.7396883344036
 21
147.5870487193744
 31
0.0
  0
LINE
  5
4F40
330
4F3C
100
AcDbEntity
  8
0
  6
Continuous
 62
     3
370
    13
100
AcDbLine
 10
667.7317883343985
 20
158.1774194786022
 30
0.0
 11
667.7317883343985
 21
147.5870487193744
 31
0.0
  0
LINE
  5
4F41
330
4F3C
100
AcDbEntity
  8
0
  6
Continuous
 62
     3
370
    13
100
AcDbLine
 10
655.3896883344036
 20
147.9070487193744
 30
0.0
 11
660.4326827788455
 21
147.9070487193744
 31
0.0
  0
LINE
  5
4F42
330
4F3C
100
AcDbEntity
  8
0
  6
Continuous
 62
     3
370
    13
100
AcDbLine
 10
667.0817883343985
 20
147.9070487193744
 30
0.0
 11
662.0387938899567
 21
147.9070487193744
 31
0.0
  0
SOLID
  5
4F43
330
4F3C
100
AcDbEntity
  8
0
 62
     3
100
AcDbTrace
 10
655.3896883344036
 20
148.0153820527077
 30
0.0
 11
655.3896883344036
 21
147.7987153860411
 31
0.0
 12
654.7396883344036
 22
147.9070487193744
 32
0.0
 13
654.7396883344036
 23
147.9070487193744
 33
0.0
  0
SOLID
  5
4F44
330
4F3C
100
AcDbEntity
  8
0
 62
     3
100
AcDbTrace
 10
667.0817883343985
 20
148.0153820527077
 30
0.0
 11
667.0817883343985
 21
147.7987153860411
 31
0.0
 12
667.7317883343985
 22
147.9070487193744
 32
0.0
 13
667.7317883343985
 23
147.9070487193744
 33
0.0
  0
MTEXT
  5
4F45
330
4F3C
100
AcDbEntity
  8
0
 62
     3
100
AcDbMText
 10
661.2357383344011
 20
147.9070487193744
 30
0.0
 40
0.65
 41
0.0
 71
     5
 72
     1
  1
\A1;13"
 73
     1
 44
1.0
1001
ACAD
1000
MTEXTBEGIN
1070
    73
1070
     1
1070
    44
1040
1.0
1070
    74
1070
     0
1000
MTEXTEND
  0
POINT
  5
4F46
330
4F3C
100
AcDbEntity
  8
DEFPOINTS
 62
     0
100
AcDbPoint
 10
654.7396883344036
 20
159.0574194786022
 30
0.0
  0
POINT
  5
4F47
330
4F3C
100
AcDbEntity
  8
DEFPOINTS
 62
     0
100
AcDbPoint
 10
667.7317883343985
 20
159.0574194786022
 30
0.0
  0
POINT
  5
4F48
330
4F3C
100
AcDbEntity
  8
DEFPOINTS
 62
     0
100
AcDbPoint
 10
667.7317883343985
 20
147.9070487193744
 30
0.0
  0
ENDBLK
  5
4F3E
330
4F3C
100
AcDbEntity
  8
0
100
AcDbBlockEnd
  0
BLOCK
  5
4F4B
330
4F4A
100
AcDbEntity
  8
0
100
AcDbBlockBegin
  2
*D40
 70
     1
 10
0.0
 20
0.0
 30
0.0
  3
*D40
  1

  0
LINE
  5
4F4D
330
4F4A
100
AcDbEntity
  8
0
  6
Continuous
 62
     3
370
    13
100
AcDbLine
 10
636.723976334398
 20
153.4372714786033
 30
0.0
 11
636.723976334398
 21
145.6057083657385
 31
0.0
  0
LINE
  5
4F4E
330
4F4A
100
AcDbEntity
  8
0
  6
Continuous
 62
     3
370
    13
100
AcDbLine
 10
668.7317863344018
 20
153.4372714786033
 30
0.0
 11
668.7317863344018
 21
145.6057083657385
 31
0.0
  0
LINE
  5
4F4F
330
4F4A
100
AcDbEntity
  8
0
  6
Continuous
 62
     3
370
    13
100
AcDbLine
 10
637.3739763343977
 20
145.9257083657385
 30
0.0
 11
651.8995480010666
 21
145.9257083657385
 31
0.0
  0
LINE
  5
4F50
330
4F4A
100
AcDbEntity
  8
0
  6
Continuous
 62
     3
370
    13
100
AcDbLine
 10
668.0817863344017
 20
145.9257083657385
 30
0.0
 11
653.5562146677332
 21
145.9257083657385
 31
0.0
  0
SOLID
  5
4F51
330
4F4A
100
AcDbEntity
  8
0
 62
     3
100
AcDbTrace
 10
637.3739763343977
 20
146.0340416990718
 30
0.0
 11
637.3739763343977
 21
145.8173750324052
 31
0.0
 12
636.723976334398
 22
145.9257083657385
 32
0.0
 13
636.723976334398
 23
145.9257083657385
 33
0.0
  0
SOLID
  5
4F52
330
4F4A
100
AcDbEntity
  8
0
 62
     3
100
AcDbTrace
 10
668.0817863344017
 20
146.0340416990718
 30
0.0
 11
668.0817863344017
 21
145.8173750324052
 31
0.0
 12
668.7317863344018
 22
145.9257083657385
 32
0.0
 13
668.7317863344018
 23
145.9257083657385
 33
0.0
  0
MTEXT
  5
4F53
330
4F4A
100
AcDbEntity
  8
0
 62
     3
100
AcDbMText
 10
652.7278813344
 20
145.9257083657385
 30
0.0
 40
0.65
 41
0.0
 71
     5
 72
     1
  1
\A1;32"
 73
     1
 44
1.0
1001
ACAD
1000
MTEXTBEGIN
1070
    73
1070
     1
1070
    44
1040
1.0
1070
    74
1070
     0
1000
MTEXTEND
  0
POINT
  5
4F54
330
4F4A
100
AcDbEntity
  8
DEFPOINTS
 62
     0
100
AcDbPoint
 10
636.723976334398
 20
154.3172714786033
 30
0.0
  0
POINT
  5
4F55
330
4F4A
100
AcDbEntity
  8
DEFPOINTS
 62
     0
100
AcDbPoint
 10
668.7317863344018
 20
154.3172714786033
 30
0.0
  0
POINT
  5
4F56
330
4F4A
100
AcDbEntity
  8
DEFPOINTS
 62
     0
100
AcDbPoint
 10
668.7317863344018
 20
145.9257083657385
 30
0.0
  0
ENDBLK
  5
4F4C
330
4F4A
100
AcDbEntity
  8
0
100
AcDbBlockEnd
  0
BLOCK
  5
5178
330
5177
100
AcDbEntity
  8
0
100
AcDbBlockBegin
  2
*D41
 70
     1
 10
0.0
 20
0.0
 30
0.0
  3
*D41
  1

  0
LINE
  5
518E
330
5177
100
AcDbEntity
  8
0
  6
Continuous
 62
     3
370
    13
100
AcDbLine
 10
635.7633009589914
 20
185.3934324651927
 30
0.0
 11
634.2585227192972
 21
185.3934324651927
 31
0.0
  0
LINE
  5
518F
330
5177
100
AcDbEntity
  8
0
  6
Continuous
 62
     3
370
    13
100
AcDbLine
 10
635.7633009589914
 20
179.8934324651927
 30
0.0
 11
634.2585227192972
 21
179.8934324651927
 31
0.0
  0
LINE
  5
5190
330
5177
100
AcDbEntity
  8
0
  6
Continuous
 62
     3
370
    13
100
AcDbLine
 10
634.5785227192972
 20
184.7434324651927
 30
0.0
 11
634.5785227192972
 21
184.1650991318594
 31
0.0
  0
LINE
  5
5191
330
5177
100
AcDbEntity
  8
0
  6
Continuous
 62
     3
370
    13
100
AcDbLine
 10
634.5785227192972
 20
180.5434324651927
 30
0.0
 11
634.5785227192972
 21
181.1217657985261
 31
0.0
  0
SOLID
  5
5192
330
5177
100
AcDbEntity
  8
0
 62
     3
100
AcDbTrace
 10
634.470189385964
 20
184.7434324651927
 30
0.0
 11
634.6868560526303
 21
184.7434324651927
 31
0.0
 12
634.5785227192972
 22
185.3934324651927
 32
0.0
 13
634.5785227192972
 23
185.3934324651927
 33
0.0
  0
SOLID
  5
5193
330
5177
100
AcDbEntity
  8
0
 62
     3
100
AcDbTrace
 10
634.470189385964
 20
180.5434324651927
 30
0.0
 11
634.6868560526303
 21
180.5434324651927
 31
0.0
 12
634.5785227192972
 22
179.8934324651927
 32
0.0
 13
634.5785227192972
 23
179.8934324651927
 33
0.0
  0
MTEXT
  5
5194
330
5177
100
AcDbEntity
  8
0
 62
     3
100
AcDbMText
 10
634.5785227192972
 20
182.6434324651928
 30
0.0
 40
0.65
 41
0.0
 71
     5
 72
     1
  1
\A1;5 1/2"
 11
0.0000000000000001
 21
1.0
 31
0.0
 73
     1
 44
1.0
1001
ACAD
1000
MTEXTBEGIN
1070
    73
1070
     1
1070
    44
1040
1.0
1070
    74
1070
     0
1000
MTEXTEND
  0
POINT
  5
5195
330
5177
100
AcDbEntity
  8
DEFPOINTS
 62
     0
100
AcDbPoint
 10
636.6433009589914
 20
185.3934324651927
 30
0.0
  0
POINT
  5
5196
330
5177
100
AcDbEntity
  8
DEFPOINTS
 62
     0
100
AcDbPoint
 10
636.6433009589914
 20
179.8934324651927
 30
0.0
  0
POINT
  5
5197
330
5177
100
AcDbEntity
  8
DEFPOINTS
 62
     0
100
AcDbPoint
 10
634.5785227192972
 20
179.8934324651927
 30
0.0
  0
ENDBLK
  5
5179
330
5177
100
AcDbEntity
  8
0
100
AcDbBlockEnd
  0
BLOCK
  5
519A
330
5199
100
AcDbEntity
  8
0
100
AcDbBlockBegin
  2
*D42
 70
     1
 10
0.0
 20
0.0
 30
0.0
  3
*D42
  1

  0
LINE
  5
519C
330
5199
100
AcDbEntity
  8
0
  6
Continuous
 62
     3
370
    13
100
AcDbLine
 10
669.5311109589867
 20
185.3934324651927
 30
0.0
 11
670.8129175504875
 21
185.3934324651927
 31
0.0
  0
LINE
  5
519D
330
5199
100
AcDbEntity
  8
0
  6
Continuous
 62
     3
370
    13
100
AcDbLine
 10
669.5311109589867
 20
181.3934324651927
 30
0.0
 11
670.8129175504875
 21
181.3934324651927
 31
0.0
  0
LINE
  5
519E
330
5199
100
AcDbEntity
  8
0
  6
Continuous
 62
     3
370
    13
100
AcDbLine
 10
670.4929175504876
 20
184.7434324651927
 30
0.0
 11
670.4929175504876
 21
184.0014880207483
 31
0.0
  0
LINE
  5
519F
330
5199
100
AcDbEntity
  8
0
  6
Continuous
 62
     3
370
    13
100
AcDbLine
 10
670.4929175504876
 20
182.0434324651927
 30
0.0
 11
670.4929175504876
 21
182.7853769096372
 31
0.0
  0
SOLID
  5
51A0
330
5199
100
AcDbEntity
  8
0
 62
     3
100
AcDbTrace
 10
670.3845842171542
 20
184.7434324651927
 30
0.0
 11
670.601250883821
 21
184.7434324651927
 31
0.0
 12
670.4929175504876
 22
185.3934324651927
 32
0.0
 13
670.4929175504876
 23
185.3934324651927
 33
0.0
  0
SOLID
  5
51A1
330
5199
100
AcDbEntity
  8
0
 62
     3
100
AcDbTrace
 10
670.3845842171542
 20
182.0434324651927
 30
0.0
 11
670.601250883821
 21
182.0434324651927
 31
0.0
 12
670.4929175504876
 22
181.3934324651927
 32
0.0
 13
670.4929175504876
 23
181.3934324651927
 33
0.0
  0
MTEXT
  5
51A2
330
5199
100
AcDbEntity
  8
0
 62
     3
100
AcDbMText
 10
670.4929175504876
 20
183.3934324651928
 30
0.0
 40
0.65
 41
0.0
 71
     5
 72
     1
  1
\A1;4"
 11
0.0000000000000001
 21
1.0
 31
0.0
 73
     1
 44
1.0
1001
ACAD
1000
MTEXTBEGIN
1070
    73
1070
     1
1070
    44
1040
1.0
1070
    74
1070
     0
1000
MTEXTEND
  0
POINT
  5
51A3
330
5199
100
AcDbEntity
  8
DEFPOINTS
 62
     0
100
AcDbPoint
 10
668.6511109589869
 20
185.3934324651927
 30
0.0
  0
POINT
  5
51A4
330
5199
100
AcDbEntity
  8
DEFPOINTS
 62
     0
100
AcDbPoint
 10
668.6511109589869
 20
181.3934324651927
 30
0.0
  0
POINT
  5
51A5
330
5199
100
AcDbEntity
  8
DEFPOINTS
 62
     0
100
AcDbPoint
 10
670.4929175504876
 20
181.3934324651927
 30
0.0
  0
ENDBLK
  5
519B
330
5199
100
AcDbEntity
  8
0
100
AcDbBlockEnd
  0
BLOCK
  5
51DC
330
51DB
100
AcDbEntity
  8
0
100
AcDbBlockBegin
  2
*D43
 70
     1
 10
0.0
 20
0.0
 30
0.0
  3
*D43
  1

  0
LINE
  5
51DE
330
51DB
100
AcDbEntity
  8
0
  6
Continuous
 62
     3
370
    13
100
AcDbLine
 10
662.115738334401
 20
150.7897194786029
 30
0.0
 11
670.9786757774602
 21
150.7897194786029
 31
0.0
  0
LINE
  5
51DF
330
51DB
100
AcDbEntity
  8
0
  6
Continuous
 62
     3
370
    13
100
AcDbLine
 10
662.115738334401
 20
167.3251194786034
 30
0.0
 11
670.9786757774602
 21
167.3251194786034
 31
0.0
  0
LINE
  5
51E0
330
51DB
100
AcDbEntity
  8
0
  6
Continuous
 62
     3
370
    13
100
AcDbLine
 10
670.6586757774602
 20
151.4397194786029
 30
0.0
 11
670.6586757774602
 21
157.3299194786031
 31
0.0
  0
LINE
  5
51E1
330
51DB
100
AcDbEntity
  8
0
  6
Continuous
 62
     3
370
    13
100
AcDbLine
 10
670.6586757774602
 20
166.6751194786034
 30
0.0
 11
670.6586757774602
 21
160.7849194786031
 31
0.0
  0
SOLID
  5
51E2
330
51DB
100
AcDbEntity
  8
0
 62
     3
100
AcDbTrace
 10
670.5503424441267
 20
151.4397194786029
 30
0.0
 11
670.7670091107936
 21
151.4397194786029
 31
0.0
 12
670.6586757774602
 22
150.7897194786029
 32
0.0
 13
670.6586757774602
 23
150.7897194786029
 33
0.0
  0
SOLID
  5
51E3
330
51DB
100
AcDbEntity
  8
0
 62
     3
100
AcDbTrace
 10
670.5503424441267
 20
166.6751194786034
 30
0.0
 11
670.7670091107936
 21
166.6751194786034
 31
0.0
 12
670.6586757774602
 22
167.3251194786034
 32
0.0
 13
670.6586757774602
 23
167.3251194786034
 33
0.0
  0
MTEXT
  5
51E4
330
51DB
100
AcDbEntity
  8
0
 62
     3
100
AcDbMText
 10
670.6586757774602
 20
159.0574194786032
 30
0.0
 40
0.65
 41
0.0
 71
     5
 72
     1
  1
\A1;16 1/2"
 11
0.0000000000000001
 21
1.0
 31
0.0
 73
     1
 44
1.0
1001
ACAD
1000
MTEXTBEGIN
1070
    73
1070
     1
1070
    44
1040
1.0
1070
    74
1070
     0
1000
MTEXTEND
  0
POINT
  5
51E5
330
51DB
100
AcDbEntity
  8
DEFPOINTS
 62
     0
100
AcDbPoint
 10
661.2357383344011
 20
150.7897194786029
 30
0.0
  0
POINT
  5
51E6
330
51DB
100
AcDbEntity
  8
DEFPOINTS
 62
     0
100
AcDbPoint
 10
661.2357383344011
 20
167.3251194786034
 30
0.0
  0
POINT
  5
51E7
330
51DB
100
AcDbEntity
  8
DEFPOINTS
 62
     0
100
AcDbPoint
 10
670.6586757774602
 20
167.3251194786034
 30
0.0
  0
ENDBLK
  5
51DD
330
51DB
100
AcDbEntity
  8
0
100
AcDbBlockEnd
  0
BLOCK
  5
51EA
330
51E9
100
AcDbEntity
  8
0
100
AcDbBlockBegin
  2
*D44
 70
     1
 10
0.0
 20
0.0
 30
0.0
  3
*D44
  1

  0
LINE
  5
51EC
330
51E9
100
AcDbEntity
  8
0
  6
Continuous
 62
     3
370
    13
100
AcDbLine
 10
665.084236334403
 20
149.7897214786026
 30
0.0
 11
672.6788914952869
 21
149.7897214786026
 31
0.0
  0
LINE
  5
51ED
330
51E9
100
AcDbEntity
  8
0
  6
Continuous
 62
     3
370
    13
100
AcDbLine
 10
665.084236334403
 20
168.3251174786037
 30
0.0
 11
672.6788914952869
 21
168.3251174786037
 31
0.0
  0
LINE
  5
51EE
330
51E9
100
AcDbEntity
  8
0
  6
Continuous
 62
     3
370
    13
100
AcDbLine
 10
672.358891495287
 20
150.4397214786026
 30
0.0
 11
672.358891495287
 21
157.3299194786032
 31
0.0
  0
LINE
  5
51EF
330
51E9
100
AcDbEntity
  8
0
  6
Continuous
 62
     3
370
    13
100
AcDbLine
 10
672.358891495287
 20
167.6751174786037
 30
0.0
 11
672.358891495287
 21
160.7849194786032
 31
0.0
  0
SOLID
  5
51F0
330
51E9
100
AcDbEntity
  8
0
 62
     3
100
AcDbTrace
 10
672.2505581619536
 20
150.4397214786026
 30
0.0
 11
672.4672248286204
 21
150.4397214786026
 31
0.0
 12
672.358891495287
 22
149.7897214786026
 32
0.0
 13
672.358891495287
 23
149.7897214786026
 33
0.0
  0
SOLID
  5
51F1
330
51E9
100
AcDbEntity
  8
0
 62
     3
100
AcDbTrace
 10
672.2505581619536
 20
167.6751174786037
 30
0.0
 11
672.4672248286204
 21
167.6751174786037
 31
0.0
 12
672.358891495287
 22
168.3251174786037
 32
0.0
 13
672.358891495287
 23
168.3251174786037
 33
0.0
  0
MTEXT
  5
51F2
330
51E9
100
AcDbEntity
  8
0
 62
     3
100
AcDbMText
 10
672.358891495287
 20
159.0574194786033
 30
0.0
 40
0.65
 41
0.0
 71
     5
 72
     1
  1
\A1;18 1/2"
 11
0.0000000000000001
 21
1.0
 31
0.0
 73
     1
 44
1.0
1001
ACAD
1000
MTEXTBEGIN
1070
    73
1070
     1
1070
    44
1040
1.0
1070
    74
1070
     0
1000
MTEXTEND
  0
POINT
  5
51F3
330
51E9
100
AcDbEntity
  8
DEFPOINTS
 62
     0
100
AcDbPoint
 10
664.204236334403
 20
149.7897214786026
 30
0.0
  0
POINT
  5
51F4
330
51E9
100
AcDbEntity
  8
DEFPOINTS
 62
     0
100
AcDbPoint
 10
664.204236334403
 20
168.3251174786037
 30
0.0
  0
POINT
  5
51F5
330
51E9
100
AcDbEntity
  8
DEFPOINTS
 62
     0
100
AcDbPoint
 10
672.358891495287
 20
168.3251174786037
 30
0.0
  0
ENDBLK
  5
51EB
330
51E9
100
AcDbEntity
  8
0
100
AcDbBlockEnd
  0
BLOCK
  5
51F8
330
51F7
100
AcDbEntity
  8
0
100
AcDbBlockBegin
  2
*D45
 70
     1
 10
0.0
 20
0.0
 30
0.0
  3
*D45
  1

  0
LINE
  5
51FA
330
51F7
100
AcDbEntity
  8
0
  6
Continuous
 62
     3
370
    13
100
AcDbLine
 10
644.7179743344019
 20
150.7897194786024
 30
0.0
 11
634.4315930738424
 21
150.7897194786024
 31
0.0
  0
LINE
  5
51FB
330
51F7
100
AcDbEntity
  8
0
  6
Continuous
 62
     3
370
    13
100
AcDbLine
 10
644.7179743344019
 20
169.5298394786036
 30
0.0
 11
634.4315930738424
 21
169.5298394786036
 31
0.0
  0
LINE
  5
51FC
330
51F7
100
AcDbEntity
  8
0
  6
Continuous
 62
     3
370
    13
100
AcDbLine
 10
634.7515930738427
 20
151.4397194786024
 30
0.0
 11
634.7515930738427
 21
158.432279478603
 31
0.0
  0
LINE
  5
51FD
330
51F7
100
AcDbEntity
  8
0
  6
Continuous
 62
     3
370
    13
100
AcDbLine
 10
634.7515930738427
 20
168.8798394786036
 30
0.0
 11
634.7515930738427
 21
161.887279478603
 31
0.0
  0
SOLID
  5
51FE
330
51F7
100
AcDbEntity
  8
0
 62
     3
100
AcDbTrace
 10
634.6432597405094
 20
151.4397194786024
 30
0.0
 11
634.8599264071761
 21
151.4397194786024
 31
0.0
 12
634.7515930738427
 22
150.7897194786024
 32
0.0
 13
634.7515930738427
 23
150.7897194786024
 33
0.0
  0
SOLID
  5
51FF
330
51F7
100
AcDbEntity
  8
0
 62
     3
100
AcDbTrace
 10
634.6432597405094
 20
168.8798394786036
 30
0.0
 11
634.8599264071761
 21
168.8798394786036
 31
0.0
 12
634.7515930738427
 22
169.5298394786036
 32
0.0
 13
634.7515930738427
 23
169.5298394786036
 33
0.0
  0
MTEXT
  5
5200
330
51F7
100
AcDbEntity
  8
0
 62
     3
100
AcDbMText
 10
634.7515930738427
 20
160.1597794786031
 30
0.0
 40
0.65
 41
0.0
 71
     5
 72
     1
  1
\A1;18 3/4"
 11
0.0000000000000001
 21
1.0
 31
0.0
 73
     1
 44
1.0
1001
ACAD
1000
MTEXTBEGIN
1070
    73
1070
     1
1070
    44
1040
1.0
1070
    74
1070
     0
1000
MTEXTEND
  0
POINT
  5
5201
330
51F7
100
AcDbEntity
  8
DEFPOINTS
 62
     0
100
AcDbPoint
 10
645.5979743344019
 20
150.7897194786024
 30
0.0
  0
POINT
  5
5202
330
51F7
100
AcDbEntity
  8
DEFPOINTS
 62
     0
100
AcDbPoint
 10
645.5979743344019
 20
169.5298394786036
 30
0.0
  0
POINT
  5
5203
330
51F7
100
AcDbEntity
  8
DEFPOINTS
 62
     0
100
AcDbPoint
 10
634.7515930738427
 20
169.5298394786036
 30
0.0
  0
ENDBLK
  5
51F9
330
51F7
100
AcDbEntity
  8
0
100
AcDbBlockEnd
  0
BLOCK
  5
5206
330
5205
100
AcDbEntity
  8
0
100
AcDbBlockBegin
  2
*D46
 70
     1
 10
0.0
 20
0.0
 30
0.0
  3
*D46
  1

  0
LINE
  5
5208
330
5205
100
AcDbEntity
  8
0
  6
Continuous
 62
     3
370
    13
100
AcDbLine
 10
640.3715263343979
 20
149.7897214786026
 30
0.0
 11
632.7539493907813
 21
149.7897214786026
 31
0.0
  0
LINE
  5
5209
330
5205
100
AcDbEntity
  8
0
  6
Continuous
 62
     3
370
    13
100
AcDbLine
 10
640.3715263343979
 20
170.5298374786034
 30
0.0
 11
632.7539493907813
 21
170.5298374786034
 31
0.0
  0
LINE
  5
520A
330
5205
100
AcDbEntity
  8
0
  6
Continuous
 62
     3
370
    13
100
AcDbLine
 10
633.073949390781
 20
150.4397214786026
 30
0.0
 11
633.073949390781
 21
158.4033905897141
 31
0.0
  0
LINE
  5
520B
330
5205
100
AcDbEntity
  8
0
  6
Continuous
 62
     3
370
    13
100
AcDbLine
 10
633.073949390781
 20
169.8798374786034
 30
0.0
 11
633.073949390781
 21
161.9161683674919
 31
0.0
  0
SOLID
  5
520C
330
5205
100
AcDbEntity
  8
0
 62
     3
100
AcDbTrace
 10
632.9656160574477
 20
150.4397214786026
 30
0.0
 11
633.1822827241146
 21
150.4397214786026
 31
0.0
 12
633.073949390781
 22
149.7897214786026
 32
0.0
 13
633.073949390781
 23
149.7897214786026
 33
0.0
  0
SOLID
  5
520D
330
5205
100
AcDbEntity
  8
0
 62
     3
100
AcDbTrace
 10
632.9656160574477
 20
169.8798374786034
 30
0.0
 11
633.1822827241146
 21
169.8798374786034
 31
0.0
 12
633.073949390781
 22
170.5298374786034
 32
0.0
 13
633.073949390781
 23
170.5298374786034
 33
0.0
  0
MTEXT
  5
520E
330
5205
100
AcDbEntity
  8
0
 62
     3
100
AcDbMText
 10
633.073949390781
 20
160.1597794786031
 30
0.0
 40
0.65
 41
0.0
 71
     5
 72
     1
  1
\A1;20 3/4"
 11
0.0000000000000001
 21
1.0
 31
0.0
 73
     1
 44
1.0
1001
ACAD
1000
MTEXTBEGIN
1070
    73
1070
     1
1070
    44
1040
1.0
1070
    74
1070
     0
1000
MTEXTEND
  0
POINT
  5
520F
330
5205
100
AcDbEntity
  8
DEFPOINTS
 62
     0
100
AcDbPoint
 10
641.2515263343979
 20
149.7897214786026
 30
0.0
  0
POINT
  5
5210
330
5205
100
AcDbEntity
  8
DEFPOINTS
 62
     0
100
AcDbPoint
 10
641.2515263343979
 20
170.5298374786034
 30
0.0
  0
POINT
  5
5211
330
5205
100
AcDbEntity
  8
DEFPOINTS
 62
     0
100
AcDbPoint
 10
633.073949390781
 20
170.5298374786034
 30
0.0
  0
ENDBLK
  5
5207
330
5205
100
AcDbEntity
  8
0
100
AcDbBlockEnd
  0
BLOCK
  5
5367
330
5366
100
AcDbEntity
  8
0
 48
5.0
100
AcDbBlockBegin
  2
_None
 70
     0
 10
0.0
 20
0.0
 30
0.0
  3
_None
  1

  0
ENDBLK
  5
5368
330
5366
100
AcDbEntity
  8
0
 48
5.0
100
AcDbBlockEnd
  0
BLOCK
  5
5524
330
551F
100
AcDbEntity
  8
0
100
AcDbBlockBegin
  2
A$C2558637D
 70
     0
 10
0.0
 20
0.0
 30
0.0
  3
A$C2558637D
  1

  0
TEXT
  5
5520
330
551F
100
AcDbEntity
  8
标注
100
AcDbText
 10
7.575172182807933
 20
0.2771899266507205
 30
0.0
 40
0.7874015748031497
  1
TOP MOUNT CUTOUT
100
AcDbText
  0
LINE
  5
5521
330
551F
100
AcDbEntity
  8
截面层
 62
     1
100
AcDbLine
 10
0.0000003891219649
 20
0.5303913939555259
 30
0.0
 11
6.216805393205389
 21
0.5303913939555259
 31
0.0
  0
ENDBLK
  5
5525
330
551F
100
AcDbEntity
  8
0
100
AcDbBlockEnd
  0
BLOCK
  5
552A
330
5529
100
AcDbEntity
  8
0
100
AcDbBlockBegin
  2
*D49
 70
     1
 10
0.0
 20
0.0
 30
0.0
  3
*D49
  1

  0
LINE
  5
552C
330
5529
100
AcDbEntity
  8
0
  6
Continuous
 62
     3
370
    13
100
AcDbLine
 10
698.6935733290829
 20
155.1119650864239
 30
0.0
 11
698.6935733290829
 21
144.3919367110711
 31
0.0
  0
LINE
  5
552D
330
5529
100
AcDbEntity
  8
0
  6
Continuous
 62
     3
370
    13
100
AcDbLine
 10
728.2210733290855
 20
155.1119650864093
 30
0.0
 11
728.2210733290855
 21
144.3919367110711
 31
0.0
  0
LINE
  5
552E
330
5529
100
AcDbEntity
  8
0
  6
Continuous
 62
     3
370
    13
100
AcDbLine
 10
699.3435733290829
 20
144.711936711071
 30
0.0
 11
711.7009344401952
 21
144.711936711071
 31
0.0
  0
LINE
  5
552F
330
5529
100
AcDbEntity
  8
0
  6
Continuous
 62
     3
370
    13
100
AcDbLine
 10
727.5710733290857
 20
144.711936711071
 30
0.0
 11
715.213712217973
 21
144.711936711071
 31
0.0
  0
SOLID
  5
5530
330
5529
100
AcDbEntity
  8
0
 62
     3
100
AcDbTrace
 10
699.3435733290829
 20
144.8202700444044
 30
0.0
 11
699.3435733290829
 21
144.6036033777377
 31
0.0
 12
698.6935733290829
 22
144.711936711071
 32
0.0
 13
698.6935733290829
 23
144.711936711071
 33
0.0
  0
SOLID
  5
5531
330
5529
100
AcDbEntity
  8
0
 62
     3
100
AcDbTrace
 10
727.5710733290857
 20
144.8202700444044
 30
0.0
 11
727.5710733290857
 21
144.6036033777377
 31
0.0
 12
728.2210733290855
 22
144.711936711071
 32
0.0
 13
728.2210733290855
 23
144.711936711071
 33
0.0
  0
MTEXT
  5
5532
330
5529
100
AcDbEntity
  8
0
 62
     3
100
AcDbMText
 10
713.4573233290844
 20
144.711936711071
 30
0.0
 40
0.65
 41
0.0
 71
     5
 72
     1
  1
\A1;29 1/2"
 73
     1
 44
1.0
1001
ACAD
1000
MTEXTBEGIN
1070
    73
1070
     1
1070
    44
1040
1.0
1070
    74
1070
     0
1000
MTEXTEND
  0
POINT
  5
5533
330
5529
100
AcDbEntity
  8
DEFPOINTS
 62
     0
100
AcDbPoint
 10
698.6935733290829
 20
155.9919650864239
 30
0.0
  0
POINT
  5
5534
330
5529
100
AcDbEntity
  8
DEFPOINTS
 62
     0
100
AcDbPoint
 10
728.2210733290855
 20
155.9919650864093
 30
0.0
  0
POINT
  5
5535
330
5529
100
AcDbEntity
  8
DEFPOINTS
 62
     0
100
AcDbPoint
 10
728.2210733290855
 20
144.711936711071
 30
0.0
  0
ENDBLK
  5
552B
330
5529
100
AcDbEntity
  8
0
100
AcDbBlockEnd
  0
BLOCK
  5
5538
330
5537
100
AcDbEntity
  8
0
100
AcDbBlockBegin
  2
*D50
 70
     1
 10
0.0
 20
0.0
 30
0.0
  3
*D50
  1

  0
LINE
  5
553A
330
5537
100
AcDbEntity
  8
0
  6
Continuous
 62
     3
370
    13
100
AcDbLine
 10
696.9612933290806
 20
147.1592250864159
 30
0.0
 11
696.9612933290806
 21
142.5333639043359
 31
0.0
  0
LINE
  5
553B
330
5537
100
AcDbEntity
  8
0
  6
Continuous
 62
     3
370
    13
100
AcDbLine
 10
729.9533533290826
 20
147.1592250864159
 30
0.0
 11
729.9533533290826
 21
142.5333639043359
 31
0.0
  0
LINE
  5
553C
330
5537
100
AcDbEntity
  8
0
  6
Continuous
 62
     3
370
    13
100
AcDbLine
 10
697.6112933290806
 20
142.8533639043358
 30
0.0
 11
712.6289899957482
 21
142.8533639043358
 31
0.0
  0
LINE
  5
553D
330
5537
100
AcDbEntity
  8
0
  6
Continuous
 62
     3
370
    13
100
AcDbLine
 10
729.3033533290826
 20
142.8533639043358
 30
0.0
 11
714.285656662415
 21
142.8533639043358
 31
0.0
  0
SOLID
  5
553E
330
5537
100
AcDbEntity
  8
0
 62
     3
100
AcDbTrace
 10
697.6112933290806
 20
142.9616972376692
 30
0.0
 11
697.6112933290806
 21
142.7450305710025
 31
0.0
 12
696.9612933290806
 22
142.8533639043358
 32
0.0
 13
696.9612933290806
 23
142.8533639043358
 33
0.0
  0
SOLID
  5
553F
330
5537
100
AcDbEntity
  8
0
 62
     3
100
AcDbTrace
 10
729.3033533290826
 20
142.9616972376692
 30
0.0
 11
729.3033533290826
 21
142.7450305710025
 31
0.0
 12
729.9533533290826
 22
142.8533639043358
 32
0.0
 13
729.9533533290826
 23
142.8533639043358
 33
0.0
  0
MTEXT
  5
5540
330
5537
100
AcDbEntity
  8
0
 62
     3
100
AcDbMText
 10
713.4573233290815
 20
142.8533639043358
 30
0.0
 40
0.65
 41
0.0
 71
     5
 72
     1
  1
\A1;33"
 73
     1
 44
1.0
1001
ACAD
1000
MTEXTBEGIN
1070
    73
1070
     1
1070
    44
1040
1.0
1070
    74
1070
     0
1000
MTEXTEND
  0
POINT
  5
5541
330
5537
100
AcDbEntity
  8
DEFPOINTS
 62
     0
100
AcDbPoint
 10
696.9612933290806
 20
148.0392250864159
 30
0.0
  0
POINT
  5
5542
330
5537
100
AcDbEntity
  8
DEFPOINTS
 62
     0
100
AcDbPoint
 10
729.9533533290826
 20
148.0392250864159
 30
0.0
  0
POINT
  5
5543
330
5537
100
AcDbEntity
  8
DEFPOINTS
 62
     0
100
AcDbPoint
 10
729.9533533290826
 20
142.8533639043358
 30
0.0
  0
ENDBLK
  5
5539
330
5537
100
AcDbEntity
  8
0
100
AcDbBlockEnd
  0
BLOCK
  5
5546
330
5545
100
AcDbEntity
  8
0
100
AcDbBlockBegin
  2
*D51
 70
     1
 10
0.0
 20
0.0
 30
0.0
  3
*D51
  1

  0
LINE
  5
5548
330
5545
100
AcDbEntity
  8
0
  6
Continuous
 62
     3
370
    13
100
AcDbLine
 10
714.3373233290872
 20
148.196705086426
 30
0.0
 11
731.8604214344075
 21
148.196705086426
 31
0.0
  0
LINE
  5
5549
330
5545
100
AcDbEntity
  8
0
  6
Continuous
 62
     3
370
    13
100
AcDbLine
 10
714.3373233290876
 20
164.1415550864236
 30
0.0
 11
731.8604214344075
 21
164.1415550864236
 31
0.0
  0
LINE
  5
554A
330
5545
100
AcDbEntity
  8
0
  6
Continuous
 62
     3
370
    13
100
AcDbLine
 10
731.5404214344072
 20
148.846705086426
 30
0.0
 11
731.5404214344072
 21
155.3660745308693
 31
0.0
  0
LINE
  5
554B
330
5545
100
AcDbEntity
  8
0
  6
Continuous
 62
     3
370
    13
100
AcDbLine
 10
731.5404214344072
 20
163.4915550864235
 30
0.0
 11
731.5404214344072
 21
156.9721856419804
 31
0.0
  0
SOLID
  5
554C
330
5545
100
AcDbEntity
  8
0
 62
     3
100
AcDbTrace
 10
731.4320881010741
 20
148.846705086426
 30
0.0
 11
731.6487547677407
 21
148.846705086426
 31
0.0
 12
731.5404214344072
 22
148.196705086426
 32
0.0
 13
731.5404214344072
 23
148.196705086426
 33
0.0
  0
SOLID
  5
554D
330
5545
100
AcDbEntity
  8
0
 62
     3
100
AcDbTrace
 10
731.4320881010741
 20
163.4915550864235
 30
0.0
 11
731.6487547677407
 21
163.4915550864235
 31
0.0
 12
731.5404214344072
 22
164.1415550864236
 32
0.0
 13
731.5404214344072
 23
164.1415550864236
 33
0.0
  0
MTEXT
  5
554E
330
5545
100
AcDbEntity
  8
0
 62
     3
100
AcDbMText
 10
731.5404214344072
 20
156.1691300864249
 30
0.0
 40
0.65
 41
0.0
 71
     5
 72
     1
  1
\A1;16"
 11
0.0000000000000001
 21
1.0
 31
0.0
 73
     1
 44
1.0
1001
ACAD
1000
MTEXTBEGIN
1070
    73
1070
     1
1070
    44
1040
1.0
1070
    74
1070
     0
1000
MTEXTEND
  0
POINT
  5
554F
330
5545
100
AcDbEntity
  8
DEFPOINTS
 62
     0
100
AcDbPoint
 10
713.4573233290872
 20
148.196705086426
 30
0.0
  0
POINT
  5
5550
330
5545
100
AcDbEntity
  8
DEFPOINTS
 62
     0
100
AcDbPoint
 10
713.4573233290876
 20
164.1415550864236
 30
0.0
  0
POINT
  5
5551
330
5545
100
AcDbEntity
  8
DEFPOINTS
 62
     0
100
AcDbPoint
 10
731.5404214344072
 20
164.1415550864236
 30
0.0
  0
ENDBLK
  5
5547
330
5545
100
AcDbEntity
  8
0
100
AcDbBlockEnd
  0
BLOCK
  5
5554
330
5553
100
AcDbEntity
  8
0
100
AcDbBlockBegin
  2
*D52
 70
     1
 10
0.0
 20
0.0
 30
0.0
  3
*D52
  1

  0
LINE
  5
5560
330
5553
100
AcDbEntity
  8
0
  6
Continuous
 62
     3
370
    13
100
AcDbLine
 10
729.1010733290855
 20
146.4644250864139
 30
0.0
 11
733.9102335406549
 21
146.4644250864139
 31
0.0
  0
LINE
  5
5561
330
5553
100
AcDbEntity
  8
0
  6
Continuous
 62
     3
370
    13
100
AcDbLine
 10
729.1010733290855
 20
168.4328850864175
 30
0.0
 11
733.9102335406549
 21
168.4328850864175
 31
0.0
  0
LINE
  5
5562
330
5553
100
AcDbEntity
  8
0
  6
Continuous
 62
     3
370
    13
100
AcDbLine
 10
733.5902335406546
 20
147.1144250864139
 30
0.0
 11
733.5902335406546
 21
155.3528670353756
 31
0.0
  0
LINE
  5
5563
330
5553
100
AcDbEntity
  8
0
  6
Continuous
 62
     3
370
    13
100
AcDbLine
 10
733.5902335406546
 20
167.7828850864175
 30
0.0
 11
733.5902335406546
 21
157.0167559242645
 31
0.0
  0
MTEXT
  5
5564
330
5553
100
AcDbEntity
  8
0
 62
     3
100
AcDbMText
 10
733.5902335406546
 20
156.1848114798201
 30
0.0
 40
0.65
 41
0.0
 71
     5
 72
     1
  1
\A1;22"
 11
0.0000000000000001
 21
1.0
 31
0.0
 73
     1
 44
1.0
1001
ACAD
1000
MTEXTBEGIN
1070
    73
1070
     1
1070
    44
1040
1.0
1070
    74
1070
     0
1000
MTEXTEND
  0
SOLID
  5
5565
330
5553
100
AcDbEntity
  8
0
 62
     3
100
AcDbTrace
 10
733.4819002073214
 20
147.1144250864139
 30
0.0
 11
733.6985668739881
 21
147.1144250864139
 31
0.0
 12
733.5902335406546
 22
146.4644250864139
 32
0.0
 13
733.5902335406546
 23
146.4644250864139
 33
0.0
  0
SOLID
  5
5566
330
5553
100
AcDbEntity
  8
0
 62
     3
100
AcDbTrace
 10
733.4819002073214
 20
167.7828850864175
 30
0.0
 11
733.6985668739881
 21
167.7828850864175
 31
0.0
 12
733.5902335406546
 22
168.4328850864175
 32
0.0
 13
733.5902335406546
 23
168.4328850864175
 33
0.0
  0
POINT
  5
5567
330
5553
100
AcDbEntity
  8
DEFPOINTS
 62
     0
100
AcDbPoint
 10
728.2210733290855
 20
146.4644250864139
 30
0.0
  0
POINT
  5
5568
330
5553
100
AcDbEntity
  8
DEFPOINTS
 62
     0
100
AcDbPoint
 10
728.2210733290855
 20
168.4328850864175
 30
0.0
  0
POINT
  5
5569
330
5553
100
AcDbEntity
  8
DEFPOINTS
 62
     0
100
AcDbPoint
 10
733.5902335406546
 20
168.4328850864175
 30
0.0
  0
ENDBLK
  5
5555
330
5553
100
AcDbEntity
  8
0
100
AcDbBlockEnd
  0
BLOCK
  5
55AA
330
55A9
100
AcDbEntity
  8
0
100
AcDbBlockBegin
  2
*D53
 70
     1
 10
0.0
 20
0.0
 30
0.0
  3
*D53
  1

  0
LINE
  5
55C0
330
55A9
100
AcDbEntity
  8
0
  6
Continuous
 62
     3
370
    13
100
AcDbLine
 10
730.6395046292566
 20
182.9277254553661
 30
0.0
 11
732.1442828689507
 21
182.9277254553661
 31
0.0
  0
LINE
  5
55C1
330
55A9
100
AcDbEntity
  8
0
  6
Continuous
 62
     3
370
    13
100
AcDbLine
 10
730.6395046292566
 20
177.4277254553661
 30
0.0
 11
732.1442828689507
 21
177.4277254553661
 31
0.0
  0
LINE
  5
55C2
330
55A9
100
AcDbEntity
  8
0
  6
Continuous
 62
     3
370
    13
100
AcDbLine
 10
731.8242828689508
 20
182.2777254553661
 30
0.0
 11
731.8242828689508
 21
181.6993921220328
 31
0.0
  0
LINE
  5
55C3
330
55A9
100
AcDbEntity
  8
0
  6
Continuous
 62
     3
370
    13
100
AcDbLine
 10
731.8242828689508
 20
178.0777254553662
 30
0.0
 11
731.8242828689508
 21
178.6560587886994
 31
0.0
  0
SOLID
  5
55C4
330
55A9
100
AcDbEntity
  8
0
 62
     3
100
AcDbTrace
 10
731.7159495356174
 20
182.2777254553661
 30
0.0
 11
731.9326162022839
 21
182.2777254553661
 31
0.0
 12
731.8242828689508
 22
182.9277254553661
 32
0.0
 13
731.8242828689508
 23
182.9277254553661
 33
0.0
  0
SOLID
  5
55C5
330
55A9
100
AcDbEntity
  8
0
 62
     3
100
AcDbTrace
 10
731.7159495356174
 20
178.0777254553662
 30
0.0
 11
731.9326162022839
 21
178.0777254553662
 31
0.0
 12
731.8242828689508
 22
177.4277254553661
 32
0.0
 13
731.8242828689508
 23
177.4277254553661
 33
0.0
  0
MTEXT
  5
55C6
330
55A9
100
AcDbEntity
  8
0
 62
     3
100
AcDbMText
 10
731.8242828689508
 20
180.1777254553662
 30
0.0
 40
0.65
 41
0.0
 71
     5
 72
     1
  1
\A1;5 1/2"
 11
0.0000000000000001
 21
1.0
 31
0.0
 73
     1
 44
1.0
1001
ACAD
1000
MTEXTBEGIN
1070
    73
1070
     1
1070
    44
1040
1.0
1070
    74
1070
     0
1000
MTEXTEND
  0
POINT
  5
55C7
330
55A9
100
AcDbEntity
  8
DEFPOINTS
 62
     0
100
AcDbPoint
 10
729.7595046292566
 20
182.9277254553661
 30
0.0
  0
POINT
  5
55C8
330
55A9
100
AcDbEntity
  8
DEFPOINTS
 62
     0
100
AcDbPoint
 10
729.7595046292566
 20
177.4277254553661
 30
0.0
  0
POINT
  5
55C9
330
55A9
100
AcDbEntity
  8
DEFPOINTS
 62
     0
100
AcDbPoint
 10
731.8242828689508
 20
177.4277254553661
 30
0.0
  0
ENDBLK
  5
55AB
330
55A9
100
AcDbEntity
  8
0
100
AcDbBlockEnd
  0
BLOCK
  5
56DE
330
56DD
100
AcDbEntity
  8
0
 48
5.0
100
AcDbBlockBegin
  2
*D54
 70
     1
 10
0.0
 20
0.0
 30
0.0
  3
*D54
  1

  0
LINE
  5
56DF
330
56DD
100
AcDbEntity
  8
标注
 48
5.0
370
    -2
100
AcDbLine
 10
40308.2425960514
 20
-92930.64822386977
 30
0.0
 11
40308.2425960514
 21
-92927.17215648377
 31
0.0
  0
LINE
  5
56E0
330
56DD
100
AcDbEntity
  8
标注
 48
5.0
370
    -2
100
AcDbLine
 10
40333.2415638149
 20
-92930.59261193468
 30
0.0
 11
40333.2415638149
 21
-92927.17215648377
 31
0.0
  0
LINE
  5
56E1
330
56DD
100
AcDbEntity
  8
标注
 48
5.0
370
    -2
100
AcDbLine
 10
40292.24259605141
 20
-92919.17215648377
 30
0.0
 11
40276.24259605142
 21
-92919.17215648377
 31
0.0
  0
LINE
  5
56E2
330
56DD
100
AcDbEntity
  8
标注
 48
5.0
370
    -2
100
AcDbLine
 10
40349.2415638149
 20
-92919.17215648377
 30
0.0
 11
40365.2415638149
 21
-92919.17215648377
 31
0.0
  0
LINE
  5
56E3
330
56DD
100
AcDbEntity
  8
标注
 48
5.0
370
    -2
100
AcDbLine
 10
40308.2425960514
 20
-92919.17215648377
 30
0.0
 11
40333.2415638149
 21
-92919.17215648377
 31
0.0
  0
SOLID
  5
56E4
330
56DD
100
AcDbEntity
  8
标注
 48
5.0
100
AcDbTrace
 10
40292.24259605141
 20
-92916.50548981706
 30
0.0
 11
40292.24259605141
 21
-92921.8388231504
 31
0.0
 12
40308.2425960514
 22
-92919.17215648377
 32
0.0
 13
40308.2425960514
 23
-92919.17215648377
 33
0.0
  0
SOLID
  5
56E5
330
56DD
100
AcDbEntity
  8
标注
 48
5.0
100
AcDbTrace
 10
40349.2415638149
 20
-92916.50548981706
 30
0.0
 11
40349.2415638149
 21
-92921.8388231504
 31
0.0
 12
40333.2415638149
 22
-92919.17215648377
 32
0.0
 13
40333.2415638149
 23
-92919.17215648377
 33
0.0
  0
MTEXT
  5
56E6
330
56DD
100
AcDbEntity
  8
标注
 48
5.0
100
AcDbMText
 10
40320.74207993316
 20
-92919.17215648377
 30
0.0
 40
16.0
 41
0.0
 71
     5
 72
     1
  1
\A1;25
 73
     1
 44
1.0
1001
ACAD
1000
MTEXTBEGIN
1070
    73
1070
     1
1070
    44
1040
1.0
1070
    74
1070
     0
1000
MTEXTEND
  0
POINT
  5
56E7
330
56DD
100
AcDbEntity
  8
DEFPOINTS
 62
     0
 48
5.0
100
AcDbPoint
 10
40308.2425960514
 20
-92914.64822386977
 30
0.0
  0
POINT
  5
56E8
330
56DD
100
AcDbEntity
  8
DEFPOINTS
 62
     0
 48
5.0
100
AcDbPoint
 10
40333.2415638149
 20
-92914.59261193466
 30
0.0
  0
POINT
  5
56E9
330
56DD
100
AcDbEntity
  8
DEFPOINTS
 62
     0
 48
5.0
100
AcDbPoint
 10
40333.2415638149
 20
-92919.17215648377
 30
0.0
  0
ENDBLK
  5
56EA
330
56DD
100
AcDbEntity
  8
0
 48
5.0
100
AcDbBlockEnd
  0
BLOCK
  5
56EC
330
56EB
100
AcDbEntity
  8
0
 48
5.0
100
AcDbBlockBegin
  2
*D55
 70
     1
 10
0.0
 20
0.0
 30
0.0
  3
*D55
  1

  0
LINE
  5
56ED
330
56EB
100
AcDbEntity
  8
标注
 48
5.0
370
    -2
100
AcDbLine
 10
40347.8636138149
 20
-92894.19895193466
 30
0.0
 11
40344.72554363448
 21
-92894.19895193466
 31
0.0
  0
LINE
  5
56EE
330
56EB
100
AcDbEntity
  8
标注
 48
5.0
370
    -2
100
AcDbLine
 10
40347.8636138149
 20
-92916.16741193466
 30
0.0
 11
40344.72554363448
 21
-92916.16741193466
 31
0.0
  0
LINE
  5
56EF
330
56EB
100
AcDbEntity
  8
标注
 48
5.0
370
    -2
100
AcDbLine
 10
40336.72554363448
 20
-92878.19895193466
 30
0.0
 11
40336.72554363448
 21
-92862.19895193466
 31
0.0
  0
LINE
  5
56F0
330
56EB
100
AcDbEntity
  8
标注
 48
5.0
370
    -2
100
AcDbLine
 10
40336.72554363448
 20
-92932.16741193466
 30
0.0
 11
40336.72554363448
 21
-92948.16741193468
 31
0.0
  0
LINE
  5
56F1
330
56EB
100
AcDbEntity
  8
标注
 48
5.0
370
    -2
100
AcDbLine
 10
40336.72554363448
 20
-92894.19895193466
 30
0.0
 11
40336.72554363448
 21
-92916.16741193466
 31
0.0
  0
SOLID
  5
56F2
330
56EB
100
AcDbEntity
  8
标注
 48
5.0
100
AcDbTrace
 10
40334.05887696781
 20
-92878.19895193466
 30
0.0
 11
40339.39221030117
 21
-92878.19895193466
 31
0.0
 12
40336.72554363448
 22
-92894.19895193466
 32
0.0
 13
40336.72554363448
 23
-92894.19895193466
 33
0.0
  0
SOLID
  5
56F3
330
56EB
100
AcDbEntity
  8
标注
 48
5.0
100
AcDbTrace
 10
40334.05887696781
 20
-92932.16741193466
 30
0.0
 11
40339.39221030117
 21
-92932.16741193466
 31
0.0
 12
40336.72554363448
 22
-92916.16741193466
 32
0.0
 13
40336.72554363448
 23
-92916.16741193466
 33
0.0
  0
MTEXT
  5
56F4
330
56EB
100
AcDbEntity
  8
标注
 48
5.0
100
AcDbMText
 10
40336.72554363451
 20
-92905.18318193463
 30
0.0
 40
16.0
 41
0.0
 71
     5
 72
     1
  1
\A1;22
 11
0.0000000000000001
 21
1.0
 31
0.0
 73
     1
 44
1.0
1001
ACAD
1000
MTEXTBEGIN
1070
    73
1070
     1
1070
    44
1040
1.0
1070
    74
1070
     0
1000
MTEXTEND
  0
POINT
  5
56F5
330
56EB
100
AcDbEntity
  8
DEFPOINTS
 62
     0
 48
5.0
100
AcDbPoint
 10
40331.8636138149
 20
-92894.19895193466
 30
0.0
  0
POINT
  5
56F6
330
56EB
100
AcDbEntity
  8
DEFPOINTS
 62
     0
 48
5.0
100
AcDbPoint
 10
40331.8636138149
 20
-92916.16741193466
 30
0.0
  0
POINT
  5
56F7
330
56EB
100
AcDbEntity
  8
DEFPOINTS
 62
     0
 48
5.0
100
AcDbPoint
 10
40336.72554363448
 20
-92916.16741193466
 30
0.0
  0
ENDBLK
  5
56F8
330
56EB
100
AcDbEntity
  8
0
 48
5.0
100
AcDbBlockEnd
  0
BLOCK
  5
56FA
330
56F9
100
AcDbEntity
  8
0
 48
5.0
100
AcDbBlockBegin
  2
*D56
 70
     1
 10
0.0
 20
0.0
 30
0.0
  3
*D56
  1

  0
LINE
  5
56FB
330
56F9
100
AcDbEntity
  8
标注
 48
5.0
370
    -2
100
AcDbLine
 10
40310.21011381492
 20
-92922.63987193466
 30
0.0
 11
40310.21011381492
 21
-92925.70704461667
 31
0.0
  0
LINE
  5
56FC
330
56F9
100
AcDbEntity
  8
标注
 48
5.0
370
    -2
100
AcDbLine
 10
40331.27306381492
 20
-92922.63987193466
 30
0.0
 11
40331.27306381492
 21
-92925.70704461667
 31
0.0
  0
LINE
  5
56FD
330
56F9
100
AcDbEntity
  8
标注
 48
5.0
370
    -2
100
AcDbLine
 10
40294.21011381491
 20
-92917.70704461667
 30
0.0
 11
40278.2101138149
 21
-92917.70704461667
 31
0.0
  0
LINE
  5
56FE
330
56F9
100
AcDbEntity
  8
标注
 48
5.0
370
    -2
100
AcDbLine
 10
40347.27306381491
 20
-92917.70704461667
 30
0.0
 11
40363.27306381489
 21
-92917.70704461667
 31
0.0
  0
LINE
  5
56FF
330
56F9
100
AcDbEntity
  8
标注
 48
5.0
370
    -2
100
AcDbLine
 10
40310.21011381492
 20
-92917.70704461667
 30
0.0
 11
40331.27306381492
 21
-92917.70704461667
 31
0.0
  0
SOLID
  5
5700
330
56F9
100
AcDbEntity
  8
标注
 48
5.0
100
AcDbTrace
 10
40294.21011381491
 20
-92915.04037794998
 30
0.0
 11
40294.21011381491
 21
-92920.37371128332
 31
0.0
 12
40310.21011381492
 22
-92917.70704461667
 32
0.0
 13
40310.21011381492
 23
-92917.70704461667
 33
0.0
  0
SOLID
  5
5701
330
56F9
100
AcDbEntity
  8
标注
 48
5.0
100
AcDbTrace
 10
40347.27306381491
 20
-92915.04037794998
 30
0.0
 11
40347.27306381491
 21
-92920.37371128332
 31
0.0
 12
40331.27306381492
 22
-92917.70704461667
 32
0.0
 13
40331.27306381492
 23
-92917.70704461667
 33
0.0
  0
MTEXT
  5
5702
330
56F9
100
AcDbEntity
  8
标注
 48
5.0
100
AcDbMText
 10
40320.74158881491
 20
-92917.70704461667
 30
0.0
 40
16.0
 41
0.0
 71
     5
 72
     1
  1
\A1;21,1
 73
     1
 44
1.0
1001
ACAD
1000
MTEXTBEGIN
1070
    73
1070
     1
1070
    44
1040
1.0
1070
    74
1070
     0
1000
MTEXTEND
  0
POINT
  5
5703
330
56F9
100
AcDbEntity
  8
DEFPOINTS
 62
     0
 48
5.0
100
AcDbPoint
 10
40310.21011381492
 20
-92906.63987193466
 30
0.0
  0
POINT
  5
5704
330
56F9
100
AcDbEntity
  8
DEFPOINTS
 62
     0
 48
5.0
100
AcDbPoint
 10
40331.27306381492
 20
-92906.63987193466
 30
0.0
  0
POINT
  5
5705
330
56F9
100
AcDbEntity
  8
DEFPOINTS
 62
     0
 48
5.0
100
AcDbPoint
 10
40331.27306381492
 20
-92917.70704461667
 30
0.0
  0
ENDBLK
  5
5706
330
56F9
100
AcDbEntity
  8
0
 48
5.0
100
AcDbBlockEnd
  0
BLOCK
  5
5708
330
5707
100
AcDbEntity
  8
0
 48
5.0
100
AcDbBlockBegin
  2
*D57
 70
     1
 10
0.0
 20
0.0
 30
0.0
  3
*D57
  1

  0
LINE
  5
5709
330
5707
100
AcDbEntity
  8
标注
 48
5.0
370
    -2
100
AcDbLine
 10
40336.7415888149
 20
-92898.76587193466
 30
0.0
 11
40343.31024812908
 21
-92898.76587193466
 31
0.0
  0
LINE
  5
570A
330
5707
100
AcDbEntity
  8
标注
 48
5.0
370
    -2
100
AcDbLine
 10
40336.7415888149
 20
-92914.51387193466
 30
0.0
 11
40343.31024812908
 21
-92914.51387193466
 31
0.0
  0
LINE
  5
570B
330
5707
100
AcDbEntity
  8
标注
 48
5.0
370
    -2
100
AcDbLine
 10
40335.31024812909
 20
-92882.76587193466
 30
0.0
 11
40335.31024812909
 21
-92866.76587193467
 31
0.0
  0
LINE
  5
570C
330
5707
100
AcDbEntity
  8
标注
 48
5.0
370
    -2
100
AcDbLine
 10
40335.31024812909
 20
-92930.51387193466
 30
0.0
 11
40335.31024812909
 21
-92946.51387193468
 31
0.0
  0
LINE
  5
570D
330
5707
100
AcDbEntity
  8
标注
 48
5.0
370
    -2
100
AcDbLine
 10
40335.31024812909
 20
-92898.76587193466
 30
0.0
 11
40335.31024812909
 21
-92914.51387193466
 31
0.0
  0
SOLID
  5
570E
330
5707
100
AcDbEntity
  8
标注
 48
5.0
100
AcDbTrace
 10
40332.64358146242
 20
-92882.76587193466
 30
0.0
 11
40337.97691479573
 21
-92882.76587193466
 31
0.0
 12
40335.31024812909
 22
-92898.76587193466
 32
0.0
 13
40335.31024812909
 23
-92898.76587193466
 33
0.0
  0
SOLID
  5
570F
330
5707
100
AcDbEntity
  8
标注
 48
5.0
100
AcDbTrace
 10
40332.64358146242
 20
-92930.51387193466
 30
0.0
 11
40337.97691479573
 21
-92930.51387193466
 31
0.0
 12
40335.31024812909
 22
-92914.51387193466
 32
0.0
 13
40335.31024812909
 23
-92914.51387193466
 33
0.0
  0
MTEXT
  5
5710
330
5707
100
AcDbEntity
  8
标注
 48
5.0
100
AcDbMText
 10
40335.31024812909
 20
-92906.63987193463
 30
0.0
 40
16.0
 41
0.0
 71
     5
 72
     1
  1
\A1;15,7
 11
0.0000000000000001
 21
1.0
 31
0.0
 73
     1
 44
1.0
1001
ACAD
1000
MTEXTBEGIN
1070
    73
1070
     1
1070
    44
1040
1.0
1070
    74
1070
     0
1000
MTEXTEND
  0
POINT
  5
5711
330
5707
100
AcDbEntity
  8
DEFPOINTS
 62
     0
 48
5.0
100
AcDbPoint
 10
40320.7415888149
 20
-92898.76587193466
 30
0.0
  0
POINT
  5
5712
330
5707
100
AcDbEntity
  8
DEFPOINTS
 62
     0
 48
5.0
100
AcDbPoint
 10
40320.7415888149
 20
-92914.51387193466
 30
0.0
  0
POINT
  5
5713
330
5707
100
AcDbEntity
  8
DEFPOINTS
 62
     0
 48
5.0
100
AcDbPoint
 10
40335.31024812909
 20
-92914.51387193466
 30
0.0
  0
ENDBLK
  5
5714
330
5707
100
AcDbEntity
  8
0
 48
5.0
100
AcDbBlockEnd
  0
BLOCK
  5
58FF
330
58FE
100
AcDbEntity
  8
0
100
AcDbBlockBegin
  2
*D58
 70
     1
 10
0.0
 20
0.0
 30
0.0
  3
*D58
  1

  0
LINE
  5
5932
330
58FE
100
AcDbEntity
  8
标注
  6
Continuous
 62
     3
 48
5.0
370
    13
100
AcDbLine
 10
770.9273292359828
 20
145.0342439979956
 30
0.0
 11
770.9273292359828
 21
141.0703113840102
 31
0.0
  0
LINE
  5
5933
330
58FE
100
AcDbEntity
  8
标注
  6
Continuous
 62
     3
 48
5.0
370
    13
100
AcDbLine
 10
795.9262969994702
 20
145.0898559330906
 30
0.0
 11
795.9262969994702
 21
141.0703113840102
 31
0.0
  0
LINE
  5
5934
330
58FE
100
AcDbEntity
  8
标注
  6
Continuous
 62
     3
 48
5.0
370
    13
100
AcDbLine
 10
771.5773292359828
 20
141.3903113840101
 30
0.0
 11
782.5948686732821
 21
141.3903113840101
 31
0.0
  0
LINE
  5
5935
330
58FE
100
AcDbEntity
  8
标注
  6
Continuous
 62
     3
 48
5.0
370
    13
100
AcDbLine
 10
795.2762969994702
 20
141.3903113840101
 30
0.0
 11
784.2587575621709
 21
141.3903113840101
 31
0.0
  0
MTEXT
  5
5936
330
58FE
100
AcDbEntity
  8
标注
 62
     3
 48
5.0
100
AcDbMText
 10
783.4268131177264
 20
141.3903113840101
 30
0.0
 40
0.65
 41
0.0
 71
     5
 72
     1
  1
\A1;25"
 73
     1
 44
1.0
1001
ACAD
1000
MTEXTBEGIN
1070
    73
1070
     1
1070
    44
1040
1.0
1070
    74
1070
     0
1000
MTEXTEND
  0
SOLID
  5
5937
330
58FE
100
AcDbEntity
  8
标注
 62
     3
 48
5.0
100
AcDbTrace
 10
771.5773292359828
 20
141.4986447173436
 30
0.0
 11
771.5773292359828
 21
141.2819780506769
 31
0.0
 12
770.9273292359828
 22
141.3903113840101
 32
0.0
 13
770.9273292359828
 23
141.3903113840101
 33
0.0
  0
SOLID
  5
5938
330
58FE
100
AcDbEntity
  8
标注
 62
     3
 48
5.0
100
AcDbTrace
 10
795.2762969994702
 20
141.4986447173436
 30
0.0
 11
795.2762969994702
 21
141.2819780506769
 31
0.0
 12
795.9262969994702
 22
141.3903113840101
 32
0.0
 13
795.9262969994702
 23
141.3903113840101
 33
0.0
  0
POINT
  5
5939
330
58FE
100
AcDbEntity
  8
DEFPOINTS
 62
     0
 48
5.0
100
AcDbPoint
 10
770.9273292359828
 20
145.9142439979956
 30
0.0
  0
POINT
  5
593A
330
58FE
100
AcDbEntity
  8
DEFPOINTS
 62
     0
 48
5.0
100
AcDbPoint
 10
795.9262969994702
 20
145.9698559330905
 30
0.0
  0
POINT
  5
593B
330
58FE
100
AcDbEntity
  8
DEFPOINTS
 62
     0
 48
5.0
100
AcDbPoint
 10
795.9262969994702
 20
141.3903113840101
 30
0.0
  0
ENDBLK
  5
5900
330
58FE
100
AcDbEntity
  8
0
100
AcDbBlockEnd
  0
BLOCK
  5
590C
330
590B
100
AcDbEntity
  8
0
100
AcDbBlockBegin
  2
*D59
 70
     1
 10
0.0
 20
0.0
 30
0.0
  3
*D59
  1

  0
LINE
  5
593C
330
590B
100
AcDbEntity
  8
标注
  6
Continuous
 62
     3
 48
5.0
370
    13
100
AcDbLine
 10
795.4283469994684
 20
166.3635159330921
 30
0.0
 11
799.7302768190602
 21
166.3635159330921
 31
0.0
  0
LINE
  5
593D
330
590B
100
AcDbEntity
  8
标注
  6
Continuous
 62
     3
 48
5.0
370
    13
100
AcDbLine
 10
795.4283469994684
 20
144.395055933103
 30
0.0
 11
799.7302768190602
 21
144.395055933103
 31
0.0
  0
LINE
  5
593E
330
590B
100
AcDbEntity
  8
标注
  6
Continuous
 62
     3
 48
5.0
370
    13
100
AcDbLine
 10
799.4102768190599
 20
165.7135159330921
 30
0.0
 11
799.4102768190599
 21
156.2112303775637
 31
0.0
  0
LINE
  5
593F
330
590B
100
AcDbEntity
  8
标注
  6
Continuous
 62
     3
 48
5.0
370
    13
100
AcDbLine
 10
799.4102768190599
 20
145.045055933103
 30
0.0
 11
799.4102768190599
 21
154.5473414886748
 31
0.0
  0
MTEXT
  5
5940
330
590B
100
AcDbEntity
  8
标注
 62
     3
 48
5.0
100
AcDbMText
 10
799.4102768190747
 20
155.3792859331194
 30
0.0
 40
0.65
 41
0.0
 71
     5
 72
     1
  1
\A1;22"
 11
0.0000000000000001
 21
1.0
 31
0.0
 73
     1
 44
1.0
1001
ACAD
1000
MTEXTBEGIN
1070
    73
1070
     1
1070
    44
1040
1.0
1070
    74
1070
     0
1000
MTEXTEND
  0
SOLID
  5
5941
330
590B
100
AcDbEntity
  8
标注
 62
     3
 48
5.0
100
AcDbTrace
 10
799.3019434857267
 20
165.7135159330921
 30
0.0
 11
799.5186101523935
 21
165.7135159330921
 31
0.0
 12
799.4102768190599
 22
166.3635159330921
 32
0.0
 13
799.4102768190599
 23
166.3635159330921
 33
0.0
  0
SOLID
  5
5942
330
590B
100
AcDbEntity
  8
标注
 62
     3
 48
5.0
100
AcDbTrace
 10
799.3019434857267
 20
145.045055933103
 30
0.0
 11
799.5186101523935
 21
145.045055933103
 31
0.0
 12
799.4102768190599
 22
144.395055933103
 32
0.0
 13
799.4102768190599
 23
144.395055933103
 33
0.0
  0
POINT
  5
5943
330
590B
100
AcDbEntity
  8
DEFPOINTS
 62
     0
 48
5.0
100
AcDbPoint
 10
794.5483469994684
 20
166.3635159330921
 30
0.0
  0
POINT
  5
5944
330
590B
100
AcDbEntity
  8
DEFPOINTS
 62
     0
 48
5.0
100
AcDbPoint
 10
794.5483469994684
 20
144.395055933103
 30
0.0
  0
POINT
  5
5945
330
590B
100
AcDbEntity
  8
DEFPOINTS
 62
     0
 48
5.0
100
AcDbPoint
 10
799.4102768190599
 20
144.395055933103
 30
0.0
  0
ENDBLK
  5
590D
330
590B
100
AcDbEntity
  8
0
100
AcDbBlockEnd
  0
BLOCK
  5
5919
330
5918
100
AcDbEntity
  8
0
100
AcDbBlockBegin
  2
*D60
 70
     1
 10
0.0
 20
0.0
 30
0.0
  3
*D60
  1

  0
LINE
  5
5946
330
5918
100
AcDbEntity
  8
标注
  6
Continuous
 62
     3
 48
5.0
370
    13
100
AcDbLine
 10
772.8948469994754
 20
153.0425959330985
 30
0.0
 11
772.8948469994754
 21
142.5354232510984
 31
0.0
  0
LINE
  5
5947
330
5918
100
AcDbEntity
  8
标注
  6
Continuous
 62
     3
 48
5.0
370
    13
100
AcDbLine
 10
793.9577969994749
 20
153.0425959330985
 30
0.0
 11
793.9577969994749
 21
142.5354232510984
 31
0.0
  0
LINE
  5
5948
330
5918
100
AcDbEntity
  8
标注
  6
Continuous
 62
     3
 48
5.0
370
    13
100
AcDbLine
 10
773.5448469994752
 20
142.8554232510984
 30
0.0
 11
781.6699331105898
 21
142.8554232510984
 31
0.0
  0
LINE
  5
5949
330
5918
100
AcDbEntity
  8
标注
  6
Continuous
 62
     3
 48
5.0
370
    13
100
AcDbLine
 10
793.3077969994749
 20
142.8554232510984
 30
0.0
 11
785.1827108883676
 21
142.8554232510984
 31
0.0
  0
MTEXT
  5
594A
330
5918
100
AcDbEntity
  8
标注
 62
     3
 48
5.0
100
AcDbMText
 10
783.4263219994787
 20
142.8554232510984
 30
0.0
 40
0.65
 41
0.0
 71
     5
 72
     1
  1
\A1;21 1/8"
 73
     1
 44
1.0
1001
ACAD
1000
MTEXTBEGIN
1070
    73
1070
     1
1070
    44
1040
1.0
1070
    74
1070
     0
1000
MTEXTEND
  0
SOLID
  5
594B
330
5918
100
AcDbEntity
  8
标注
 62
     3
 48
5.0
100
AcDbTrace
 10
773.5448469994752
 20
142.9637565844316
 30
0.0
 11
773.5448469994752
 21
142.7470899177651
 31
0.0
 12
772.8948469994754
 22
142.8554232510984
 32
0.0
 13
772.8948469994754
 23
142.8554232510984
 33
0.0
  0
SOLID
  5
594C
330
5918
100
AcDbEntity
  8
标注
 62
     3
 48
5.0
100
AcDbTrace
 10
793.3077969994749
 20
142.9637565844316
 30
0.0
 11
793.3077969994749
 21
142.7470899177651
 31
0.0
 12
793.9577969994749
 22
142.8554232510984
 32
0.0
 13
793.9577969994749
 23
142.8554232510984
 33
0.0
  0
POINT
  5
594D
330
5918
100
AcDbEntity
  8
DEFPOINTS
 62
     0
 48
5.0
100
AcDbPoint
 10
772.8948469994754
 20
153.9225959330984
 30
0.0
  0
POINT
  5
594E
330
5918
100
AcDbEntity
  8
DEFPOINTS
 62
     0
 48
5.0
100
AcDbPoint
 10
793.9577969994749
 20
153.9225959330984
 30
0.0
  0
POINT
  5
594F
330
5918
100
AcDbEntity
  8
DEFPOINTS
 62
     0
 48
5.0
100
AcDbPoint
 10
793.9577969994749
 20
142.8554232510984
 30
0.0
  0
ENDBLK
  5
591A
330
5918
100
AcDbEntity
  8
0
100
AcDbBlockEnd
  0
BLOCK
  5
5926
330
5925
100
AcDbEntity
  8
0
100
AcDbBlockBegin
  2
*D61
 70
     1
 10
0.0
 20
0.0
 30
0.0
  3
*D61
  1

  0
LINE
  5
5950
330
5925
100
AcDbEntity
  8
标注
  6
Continuous
 62
     3
 48
5.0
370
    13
100
AcDbLine
 10
784.3063219994713
 20
161.7965959330946
 30
0.0
 11
798.3149813136514
 21
161.7965959330946
 31
0.0
  0
LINE
  5
5951
330
5925
100
AcDbEntity
  8
标注
  6
Continuous
 62
     3
 48
5.0
370
    13
100
AcDbLine
 10
784.3063219994713
 20
146.0485959331023
 30
0.0
 11
798.3149813136514
 21
146.0485959331023
 31
0.0
  0
LINE
  5
5952
330
5925
100
AcDbEntity
  8
标注
  6
Continuous
 62
     3
 48
5.0
370
    13
100
AcDbLine
 10
797.9949813136514
 20
161.1465959330946
 30
0.0
 11
797.9949813136514
 21
155.6500959331129
 31
0.0
  0
LINE
  5
5953
330
5925
100
AcDbEntity
  8
标注
  6
Continuous
 62
     3
 48
5.0
370
    13
100
AcDbLine
 10
797.9949813136514
 20
146.6985959331023
 30
0.0
 11
797.9949813136514
 21
152.1950959331129
 31
0.0
  0
MTEXT
  5
5954
330
5925
100
AcDbEntity
  8
标注
 62
     3
 48
5.0
100
AcDbMText
 10
797.9949813136657
 20
153.922595933113
 30
0.0
 40
0.65
 41
0.0
 71
     5
 72
     1
  1
\A1;15 3/4"
 11
0.0000000000000001
 21
1.0
 31
0.0
 73
     1
 44
1.0
1001
ACAD
1000
MTEXTBEGIN
1070
    73
1070
     1
1070
    44
1040
1.0
1070
    74
1070
     0
1000
MTEXTEND
  0
SOLID
  5
5955
330
5925
100
AcDbEntity
  8
标注
 62
     3
 48
5.0
100
AcDbTrace
 10
797.8866479803181
 20
161.1465959330946
 30
0.0
 11
798.1033146469846
 21
161.1465959330946
 31
0.0
 12
797.9949813136514
 22
161.7965959330946
 32
0.0
 13
797.9949813136514
 23
161.7965959330946
 33
0.0
  0
SOLID
  5
5956
330
5925
100
AcDbEntity
  8
标注
 62
     3
 48
5.0
100
AcDbTrace
 10
797.8866479803181
 20
146.6985959331023
 30
0.0
 11
798.1033146469846
 21
146.6985959331023
 31
0.0
 12
797.9949813136514
 22
146.0485959331023
 32
0.0
 13
797.9949813136514
 23
146.0485959331023
 33
0.0
  0
POINT
  5
5957
330
5925
100
AcDbEntity
  8
DEFPOINTS
 62
     0
 48
5.0
100
AcDbPoint
 10
783.4263219994713
 20
161.7965959330946
 30
0.0
  0
POINT
  5
5958
330
5925
100
AcDbEntity
  8
DEFPOINTS
 62
     0
 48
5.0
100
AcDbPoint
 10
783.4263219994713
 20
146.0485959331023
 30
0.0
  0
POINT
  5
5959
330
5925
100
AcDbEntity
  8
DEFPOINTS
 62
     0
 48
5.0
100
AcDbPoint
 10
797.9949813136514
 20
146.0485959331023
 30
0.0
  0
ENDBLK
  5
5927
330
5925
100
AcDbEntity
  8
0
100
AcDbBlockEnd
  0
BLOCK
  5
5997
330
5996
100
AcDbEntity
  8
0
100
AcDbBlockBegin
  2
*D62
 70
     1
 10
0.0
 20
0.0
 30
0.0
  3
*D62
  1

  0
LINE
  5
59A3
330
5996
100
AcDbEntity
  8
0
  6
Continuous
 62
     3
370
    13
100
AcDbLine
 10
796.6124482996443
 20
180.8583563020406
 30
0.0
 11
798.1172265393385
 21
180.8583563020406
 31
0.0
  0
LINE
  5
59A4
330
5996
100
AcDbEntity
  8
0
  6
Continuous
 62
     3
370
    13
100
AcDbLine
 10
796.6124482996443
 20
175.3583563020407
 30
0.0
 11
798.1172265393385
 21
175.3583563020407
 31
0.0
  0
LINE
  5
59A5
330
5996
100
AcDbEntity
  8
0
  6
Continuous
 62
     3
370
    13
100
AcDbLine
 10
797.7972265393382
 20
180.2083563020407
 30
0.0
 11
797.7972265393382
 21
179.6300229687074
 31
0.0
  0
LINE
  5
59A6
330
5996
100
AcDbEntity
  8
0
  6
Continuous
 62
     3
370
    13
100
AcDbLine
 10
797.7972265393382
 20
176.0083563020407
 30
0.0
 11
797.7972265393382
 21
176.5866896353741
 31
0.0
  0
SOLID
  5
59A7
330
5996
100
AcDbEntity
  8
0
 62
     3
100
AcDbTrace
 10
797.6888932060051
 20
180.2083563020407
 30
0.0
 11
797.9055598726717
 21
180.2083563020407
 31
0.0
 12
797.7972265393382
 22
180.8583563020406
 32
0.0
 13
797.7972265393382
 23
180.8583563020406
 33
0.0
  0
SOLID
  5
59A8
330
5996
100
AcDbEntity
  8
0
 62
     3
100
AcDbTrace
 10
797.6888932060051
 20
176.0083563020407
 30
0.0
 11
797.9055598726717
 21
176.0083563020407
 31
0.0
 12
797.7972265393382
 22
175.3583563020407
 32
0.0
 13
797.7972265393382
 23
175.3583563020407
 33
0.0
  0
MTEXT
  5
59A9
330
5996
100
AcDbEntity
  8
0
 62
     3
100
AcDbMText
 10
797.7972265393382
 20
178.1083563020408
 30
0.0
 40
0.65
 41
0.0
 71
     5
 72
     1
  1
\A1;5 1/2"
 11
0.0000000000000001
 21
1.0
 31
0.0
 73
     1
 44
1.0
1001
ACAD
1000
MTEXTBEGIN
1070
    73
1070
     1
1070
    44
1040
1.0
1070
    74
1070
     0
1000
MTEXTEND
  0
POINT
  5
59AA
330
5996
100
AcDbEntity
  8
DEFPOINTS
 62
     0
100
AcDbPoint
 10
795.7324482996442
 20
180.8583563020406
 30
0.0
  0
POINT
  5
59AB
330
5996
100
AcDbEntity
  8
DEFPOINTS
 62
     0
100
AcDbPoint
 10
795.7324482996442
 20
175.3583563020407
 30
0.0
  0
POINT
  5
59AC
330
5996
100
AcDbEntity
  8
DEFPOINTS
 62
     0
100
AcDbPoint
 10
797.7972265393382
 20
175.3583563020407
 30
0.0
  0
ENDBLK
  5
5998
330
5996
100
AcDbEntity
  8
0
100
AcDbBlockEnd
  0
BLOCK
  5
5A1B
330
5A1A
100
AcDbEntity
  8
0
 48
5.0
100
AcDbBlockBegin
  2
*D63
 70
     1
 10
0.0
 20
0.0
 30
0.0
  3
*D63
  1

  0
LINE
  5
5A1C
330
5A1A
100
AcDbEntity
  8
标注
 62
     3
 48
5.0
370
    -2
100
AcDbLine
 10
58588.93892830213
 20
-122597.734390597
 30
0.0
 11
58588.93892830213
 21
-122585.1174924257
 31
0.0
  0
LINE
  5
5A1D
330
5A1A
100
AcDbEntity
  8
标注
 62
     3
 48
5.0
370
    -2
100
AcDbLine
 10
58613.93887830213
 20
-122597.734390597
 30
0.0
 11
58613.93887830213
 21
-122585.1174924257
 31
0.0
  0
LINE
  5
5A1E
330
5A1A
100
AcDbEntity
  8
标注
 62
     3
 48
5.0
370
    -2
100
AcDbLine
 10
58572.93892830213
 20
-122577.1174924257
 30
0.0
 11
58556.93892830212
 21
-122577.1174924257
 31
0.0
  0
LINE
  5
5A1F
330
5A1A
100
AcDbEntity
  8
标注
 62
     3
 48
5.0
370
    -2
100
AcDbLine
 10
58629.93887830213
 20
-122577.1174924257
 30
0.0
 11
58645.93887830213
 21
-122577.1174924257
 31
0.0
  0
LINE
  5
5A20
330
5A1A
100
AcDbEntity
  8
标注
 62
     3
 48
5.0
370
    -2
100
AcDbLine
 10
58588.93892830213
 20
-122577.1174924257
 30
0.0
 11
58613.93887830213
 21
-122577.1174924257
 31
0.0
  0
SOLID
  5
5A21
330
5A1A
100
AcDbEntity
  8
标注
 62
     3
 48
5.0
100
AcDbTrace
 10
58572.93892830213
 20
-122574.450825759
 30
0.0
 11
58572.93892830213
 21
-122579.7841590923
 31
0.0
 12
58588.93892830213
 22
-122577.1174924257
 32
0.0
 13
58588.93892830213
 23
-122577.1174924257
 33
0.0
  0
SOLID
  5
5A22
330
5A1A
100
AcDbEntity
  8
标注
 62
     3
 48
5.0
100
AcDbTrace
 10
58629.93887830213
 20
-122574.450825759
 30
0.0
 11
58629.93887830213
 21
-122579.7841590923
 31
0.0
 12
58613.93887830213
 22
-122577.1174924257
 32
0.0
 13
58613.93887830213
 23
-122577.1174924257
 33
0.0
  0
MTEXT
  5
5A23
330
5A1A
100
AcDbEntity
  8
标注
 62
     3
 48
5.0
100
AcDbMText
 10
58601.43890330212
 20
-122577.1174924257
 30
0.0
 40
16.0
 41
0.0
 71
     5
 72
     1
  1
\A1;25
 73
     1
 44
1.0
1001
ACAD
1000
MTEXTBEGIN
1070
    73
1070
     1
1070
    44
1040
1.0
1070
    74
1070
     0
1000
MTEXTEND
  0
POINT
  5
5A24
330
5A1A
100
AcDbEntity
  8
DEFPOINTS
 62
     0
 48
5.0
100
AcDbPoint
 10
58588.93892830213
 20
-122572.734390597
 30
0.0
  0
POINT
  5
5A25
330
5A1A
100
AcDbEntity
  8
DEFPOINTS
 62
     0
 48
5.0
100
AcDbPoint
 10
58613.93887830213
 20
-122572.734390597
 30
0.0
  0
POINT
  5
5A26
330
5A1A
100
AcDbEntity
  8
DEFPOINTS
 62
     0
 48
5.0
100
AcDbPoint
 10
58613.93887830213
 20
-122577.1174924257
 30
0.0
  0
ENDBLK
  5
5A27
330
5A1A
100
AcDbEntity
  8
0
 48
5.0
100
AcDbBlockEnd
  0
BLOCK
  5
5A29
330
5A28
100
AcDbEntity
  8
0
 48
5.0
100
AcDbBlockBegin
  2
*D64
 70
     1
 10
0.0
 20
0.0
 30
0.0
  3
*D64
  1

  0
LINE
  5
5A2A
330
5A28
100
AcDbEntity
  8
标注
 62
     3
 48
5.0
370
    -2
100
AcDbLine
 10
58590.81382222605
 20
-122593.3461712432
 30
0.0
 11
58590.81382222605
 21
-122583.9191579497
 31
0.0
  0
LINE
  5
5A2B
330
5A28
100
AcDbEntity
  8
标注
 62
     3
 48
5.0
370
    -2
100
AcDbLine
 10
58612.0639843782
 20
-122593.3461712432
 30
0.0
 11
58612.0639843782
 21
-122583.9191579497
 31
0.0
  0
LINE
  5
5A2C
330
5A28
100
AcDbEntity
  8
标注
 62
     3
 48
5.0
370
    -2
100
AcDbLine
 10
58574.81382222605
 20
-122575.9191579498
 30
0.0
 11
58558.81382222605
 21
-122575.9191579498
 31
0.0
  0
LINE
  5
5A2D
330
5A28
100
AcDbEntity
  8
标注
 62
     3
 48
5.0
370
    -2
100
AcDbLine
 10
58628.0639843782
 20
-122575.9191579498
 30
0.0
 11
58644.0639843782
 21
-122575.9191579498
 31
0.0
  0
LINE
  5
5A2E
330
5A28
100
AcDbEntity
  8
标注
 62
     3
 48
5.0
370
    -2
100
AcDbLine
 10
58590.81382222605
 20
-122575.9191579498
 30
0.0
 11
58612.0639843782
 21
-122575.9191579498
 31
0.0
  0
SOLID
  5
5A2F
330
5A28
100
AcDbEntity
  8
标注
 62
     3
 48
5.0
100
AcDbTrace
 10
58574.81382222605
 20
-122573.2524912831
 30
0.0
 11
58574.81382222605
 21
-122578.5858246164
 31
0.0
 12
58590.81382222605
 22
-122575.9191579498
 32
0.0
 13
58590.81382222605
 23
-122575.9191579498
 33
0.0
  0
SOLID
  5
5A30
330
5A28
100
AcDbEntity
  8
标注
 62
     3
 48
5.0
100
AcDbTrace
 10
58628.0639843782
 20
-122573.2524912831
 30
0.0
 11
58628.0639843782
 21
-122578.5858246164
 31
0.0
 12
58612.0639843782
 22
-122575.9191579498
 32
0.0
 13
58612.0639843782
 23
-122575.9191579498
 33
0.0
  0
MTEXT
  5
5A31
330
5A28
100
AcDbEntity
  8
标注
 62
     3
 48
5.0
100
AcDbMText
 10
58601.43890330212
 20
-122575.9191579498
 30
0.0
 40
16.0
 41
0.0
 71
     5
 72
     1
  1
\A1;21
 73
     1
 44
1.0
1001
ACAD
1000
MTEXTBEGIN
1070
    73
1070
     1
1070
    44
1040
1.0
1070
    74
1070
     0
1000
MTEXTEND
  0
POINT
  5
5A32
330
5A28
100
AcDbEntity
  8
DEFPOINTS
 62
     0
 48
5.0
100
AcDbPoint
 10
58590.81382222605
 20
-122568.3461712432
 30
0.0
  0
POINT
  5
5A33
330
5A28
100
AcDbEntity
  8
DEFPOINTS
 62
     0
 48
5.0
100
AcDbPoint
 10
58612.0639843782
 20
-122568.3461712432
 30
0.0
  0
POINT
  5
5A34
330
5A28
100
AcDbEntity
  8
DEFPOINTS
 62
     0
 48
5.0
100
AcDbPoint
 10
58612.0639843782
 20
-122575.9191579498
 30
0.0
  0
ENDBLK
  5
5A35
330
5A28
100
AcDbEntity
  8
0
 48
5.0
100
AcDbBlockEnd
  0
BLOCK
  5
5A37
330
5A36
100
AcDbEntity
  8
0
 48
5.0
100
AcDbBlockBegin
  2
*D65
 70
     1
 10
0.0
 20
0.0
 30
0.0
  3
*D65
  1

  0
LINE
  5
5A38
330
5A36
100
AcDbEntity
  8
标注
 62
     3
 48
5.0
370
    -2
100
AcDbLine
 10
58633.12939310286
 20
-122572.4208683601
 30
0.0
 11
58623.8695083684
 21
-122572.4208683601
 31
0.0
  0
LINE
  5
5A39
330
5A36
100
AcDbEntity
  8
标注
 62
     3
 48
5.0
370
    -2
100
AcDbLine
 10
58626.43890330213
 20
-122553.5203928339
 30
0.0
 11
58623.8695083684
 21
-122553.5203928339
 31
0.0
  0
LINE
  5
5A3A
330
5A36
100
AcDbEntity
  8
标注
 62
     3
 48
5.0
370
    -2
100
AcDbLine
 10
58615.8695083684
 20
-122588.4208683601
 30
0.0
 11
58615.8695083684
 21
-122604.4208683601
 31
0.0
  0
LINE
  5
5A3B
330
5A36
100
AcDbEntity
  8
标注
 62
     3
 48
5.0
370
    -2
100
AcDbLine
 10
58615.8695083684
 20
-122537.5203928339
 30
0.0
 11
58615.8695083684
 21
-122521.5203928339
 31
0.0
  0
LINE
  5
5A3C
330
5A36
100
AcDbEntity
  8
标注
 62
     3
 48
5.0
370
    -2
100
AcDbLine
 10
58615.8695083684
 20
-122572.4208683601
 30
0.0
 11
58615.8695083684
 21
-122553.5203928339
 31
0.0
  0
SOLID
  5
5A3D
330
5A36
100
AcDbEntity
  8
标注
 62
     3
 48
5.0
100
AcDbTrace
 10
58613.20284170172
 20
-122588.4208683601
 30
0.0
 11
58618.53617503506
 21
-122588.4208683601
 31
0.0
 12
58615.8695083684
 22
-122572.4208683601
 32
0.0
 13
58615.8695083684
 23
-122572.4208683601
 33
0.0
  0
SOLID
  5
5A3E
330
5A36
100
AcDbEntity
  8
标注
 62
     3
 48
5.0
100
AcDbTrace
 10
58613.20284170172
 20
-122537.5203928339
 30
0.0
 11
58618.53617503506
 21
-122537.5203928339
 31
0.0
 12
58615.8695083684
 22
-122553.5203928339
 32
0.0
 13
58615.8695083684
 23
-122553.5203928339
 33
0.0
  0
MTEXT
  5
5A3F
330
5A36
100
AcDbEntity
  8
标注
 62
     3
 48
5.0
100
AcDbMText
 10
58615.86950836843
 20
-122562.970630597
 30
0.0
 40
16.0
 41
0.0
 71
     5
 72
     1
  1
\A1;19
 11
0.0000000000000001
 21
1.0
 31
0.0
 73
     1
 44
1.0
1001
ACAD
1000
MTEXTBEGIN
1070
    73
1070
     1
1070
    44
1040
1.0
1070
    74
1070
     0
1000
MTEXTEND
  0
POINT
  5
5A40
330
5A36
100
AcDbEntity
  8
DEFPOINTS
 62
     0
 48
5.0
100
AcDbPoint
 10
58608.12939310287
 20
-122572.4208683601
 30
0.0
  0
POINT
  5
5A41
330
5A36
100
AcDbEntity
  8
DEFPOINTS
 62
     0
 48
5.0
100
AcDbPoint
 10
58601.43890330212
 20
-122553.5203928339
 30
0.0
  0
POINT
  5
5A42
330
5A36
100
AcDbEntity
  8
DEFPOINTS
 62
     0
 48
5.0
100
AcDbPoint
 10
58615.8695083684
 20
-122553.5203928339
 30
0.0
  0
ENDBLK
  5
5A43
330
5A36
100
AcDbEntity
  8
0
 48
5.0
100
AcDbBlockEnd
  0
BLOCK
  5
5A45
330
5A44
100
AcDbEntity
  8
0
 48
5.0
100
AcDbBlockBegin
  2
*D66
 70
     1
 10
0.0
 20
0.0
 30
0.0
  3
*D66
  1

  0
LINE
  5
5A46
330
5A44
100
AcDbEntity
  8
标注
 62
     3
 48
5.0
370
    -2
100
AcDbLine
 10
58637.67903830213
 20
-122551.947030597
 30
0.0
 11
58625.63775115293
 21
-122551.947030597
 31
0.0
  0
LINE
  5
5A47
330
5A44
100
AcDbEntity
  8
标注
 62
     3
 48
5.0
370
    -2
100
AcDbLine
 10
58637.67903830213
 20
-122573.994230597
 30
0.0
 11
58625.63775115293
 21
-122573.994230597
 31
0.0
  0
LINE
  5
5A48
330
5A44
100
AcDbEntity
  8
标注
 62
     3
 48
5.0
370
    -2
100
AcDbLine
 10
58617.63775115292
 20
-122535.947030597
 30
0.0
 11
58617.63775115292
 21
-122519.947030597
 31
0.0
  0
LINE
  5
5A49
330
5A44
100
AcDbEntity
  8
标注
 62
     3
 48
5.0
370
    -2
100
AcDbLine
 10
58617.63775115292
 20
-122589.994230597
 30
0.0
 11
58617.63775115292
 21
-122605.994230597
 31
0.0
  0
LINE
  5
5A4A
330
5A44
100
AcDbEntity
  8
标注
 62
     3
 48
5.0
370
    -2
100
AcDbLine
 10
58617.63775115292
 20
-122551.947030597
 30
0.0
 11
58617.63775115292
 21
-122573.994230597
 31
0.0
  0
SOLID
  5
5A4B
330
5A44
100
AcDbEntity
  8
标注
 62
     3
 48
5.0
100
AcDbTrace
 10
58614.97108448627
 20
-122535.947030597
 30
0.0
 11
58620.3044178196
 21
-122535.947030597
 31
0.0
 12
58617.63775115292
 22
-122551.947030597
 32
0.0
 13
58617.63775115292
 23
-122551.947030597
 33
0.0
  0
SOLID
  5
5A4C
330
5A44
100
AcDbEntity
  8
标注
 62
     3
 48
5.0
100
AcDbTrace
 10
58614.97108448627
 20
-122589.994230597
 30
0.0
 11
58620.3044178196
 21
-122589.994230597
 31
0.0
 12
58617.63775115292
 22
-122573.994230597
 32
0.0
 13
58617.63775115292
 23
-122573.994230597
 33
0.0
  0
MTEXT
  5
5A4D
330
5A44
100
AcDbEntity
  8
标注
 62
     3
 48
5.0
100
AcDbMText
 10
58617.63775115296
 20
-122562.970630597
 30
0.0
 40
16.0
 41
0.0
 71
     5
 72
     1
  1
\A1;22
 11
0.0000000000000001
 21
1.0
 31
0.0
 73
     1
 44
1.0
1001
ACAD
1000
MTEXTBEGIN
1070
    73
1070
     1
1070
    44
1040
1.0
1070
    74
1070
     0
1000
MTEXTEND
  0
POINT
  5
5A4E
330
5A44
100
AcDbEntity
  8
DEFPOINTS
 62
     0
 48
5.0
100
AcDbPoint
 10
58612.67903830213
 20
-122551.947030597
 30
0.0
  0
POINT
  5
5A4F
330
5A44
100
AcDbEntity
  8
DEFPOINTS
 62
     0
 48
5.0
100
AcDbPoint
 10
58612.67903830213
 20
-122573.994230597
 30
0.0
  0
POINT
  5
5A50
330
5A44
100
AcDbEntity
  8
DEFPOINTS
 62
     0
 48
5.0
100
AcDbPoint
 10
58617.63775115292
 20
-122573.994230597
 30
0.0
  0
ENDBLK
  5
5A51
330
5A44
100
AcDbEntity
  8
0
 48
5.0
100
AcDbBlockEnd
  0
BLOCK
  5
5A53
330
5A52
100
AcDbEntity
  8
0
 48
5.0
100
AcDbBlockBegin
  2
*D67
 70
     1
 10
0.0
 20
0.0
 30
0.0
  3
*D67
  1

  0
LINE
  5
5A54
330
5A52
100
AcDbEntity
  8
标注
 62
     3
 48
5.0
370
    -2
100
AcDbLine
 10
58628.49518871438
 20
-122541.328037815
 30
0.0
 11
58624.06037280273
 21
-122541.328037815
 31
0.0
  0
LINE
  5
5A55
330
5A52
100
AcDbEntity
  8
标注
 62
     3
 48
5.0
370
    -2
100
AcDbLine
 10
58638.66669063477
 20
-122535.8188450646
 30
0.0
 11
58624.06037280273
 21
-122535.8188450646
 31
0.0
  0
LINE
  5
5A56
330
5A52
100
AcDbEntity
  8
标注
 62
     3
 48
5.0
370
    -2
100
AcDbLine
 10
58616.06037280274
 20
-122557.328037815
 30
0.0
 11
58616.06037280274
 21
-122573.328037815
 31
0.0
  0
LINE
  5
5A57
330
5A52
100
AcDbEntity
  8
标注
 62
     3
 48
5.0
370
    -2
100
AcDbLine
 10
58616.06037280274
 20
-122519.8188450646
 30
0.0
 11
58616.06037280274
 21
-122503.8188450646
 31
0.0
  0
LINE
  5
5A58
330
5A52
100
AcDbEntity
  8
标注
 62
     3
 48
5.0
370
    -2
100
AcDbLine
 10
58616.06037280274
 20
-122541.328037815
 30
0.0
 11
58616.06037280274
 21
-122535.8188450646
 31
0.0
  0
SOLID
  5
5A59
330
5A52
100
AcDbEntity
  8
标注
 62
     3
 48
5.0
100
AcDbTrace
 10
58613.39370613608
 20
-122557.328037815
 30
0.0
 11
58618.7270394694
 21
-122557.328037815
 31
0.0
 12
58616.06037280274
 22
-122541.328037815
 32
0.0
 13
58616.06037280274
 23
-122541.328037815
 33
0.0
  0
SOLID
  5
5A5A
330
5A52
100
AcDbEntity
  8
标注
 62
     3
 48
5.0
100
AcDbTrace
 10
58613.39370613608
 20
-122519.8188450646
 30
0.0
 11
58618.7270394694
 21
-122519.8188450646
 31
0.0
 12
58616.06037280274
 22
-122535.8188450646
 32
0.0
 13
58616.06037280274
 23
-122535.8188450646
 33
0.0
  0
MTEXT
  5
5A5B
330
5A52
100
AcDbEntity
  8
标注
 62
     3
 48
5.0
100
AcDbMText
 10
58616.06037280276
 20
-122538.5734414398
 30
0.0
 40
16.0
 41
0.0
 71
     5
 72
     1
  1
\A1;6
 11
0.0000000000000001
 21
1.0
 31
0.0
 73
     1
 44
1.0
1001
ACAD
1000
MTEXTBEGIN
1070
    73
1070
     1
1070
    44
1040
1.0
1070
    74
1070
     0
1000
MTEXTEND
  0
POINT
  5
5A5C
330
5A52
100
AcDbEntity
  8
DEFPOINTS
 62
     0
 48
5.0
100
AcDbPoint
 10
58603.49518871437
 20
-122541.328037815
 30
0.0
  0
POINT
  5
5A5D
330
5A52
100
AcDbEntity
  8
DEFPOINTS
 62
     0
 48
5.0
100
AcDbPoint
 10
58613.66669063477
 20
-122535.8188450646
 30
0.0
  0
POINT
  5
5A5E
330
5A52
100
AcDbEntity
  8
DEFPOINTS
 62
     0
 48
5.0
100
AcDbPoint
 10
58616.06037280274
 20
-122535.8188450646
 30
0.0
  0
ENDBLK
  5
5A5F
330
5A52
100
AcDbEntity
  8
0
 48
5.0
100
AcDbBlockEnd
  0
BLOCK
  5
5BF1
330
5BF0
100
AcDbEntity
  8
0
100
AcDbBlockBegin
  2
*D68
 70
     1
 10
0.0
 20
0.0
 30
0.0
  3
*D68
  1

  0
LINE
  5
5DB6
330
5BF0
100
AcDbEntity
  8
标注
  6
Continuous
 62
     3
 48
5.0
370
    13
100
AcDbLine
 10
843.5175314594506
 20
140.3636779630328
 30
0.0
 11
843.5175314594506
 21
136.1892959594414
 31
0.0
  0
LINE
  5
5DB7
330
5BF0
100
AcDbEntity
  8
标注
  6
Continuous
 62
     3
 48
5.0
370
    13
100
AcDbLine
 10
868.5174814594482
 20
140.3636779630328
 30
0.0
 11
868.5174814594482
 21
136.1892959594414
 31
0.0
  0
LINE
  5
5DB8
330
5BF0
100
AcDbEntity
  8
标注
  6
Continuous
 62
     3
 48
5.0
370
    13
100
AcDbLine
 10
844.1675314594506
 20
136.5092959594414
 30
0.0
 11
855.185562015005
 21
136.5092959594414
 31
0.0
  0
LINE
  5
5DB9
330
5BF0
100
AcDbEntity
  8
标注
  6
Continuous
 62
     3
 48
5.0
370
    13
100
AcDbLine
 10
867.8674814594483
 20
136.5092959594414
 30
0.0
 11
856.8494509038938
 21
136.5092959594414
 31
0.0
  0
MTEXT
  5
5DBA
330
5BF0
100
AcDbEntity
  8
标注
 62
     3
 48
5.0
100
AcDbMText
 10
856.0175064594494
 20
136.5092959594414
 30
0.0
 40
0.65
 41
0.0
 71
     5
 72
     1
  1
\A1;25"
 73
     1
 44
1.0
1001
ACAD
1000
MTEXTBEGIN
1070
    73
1070
     1
1070
    44
1040
1.0
1070
    74
1070
     0
1000
MTEXTEND
  0
SOLID
  5
5DBB
330
5BF0
100
AcDbEntity
  8
标注
 62
     3
 48
5.0
100
AcDbTrace
 10
844.1675314594506
 20
136.6176292927747
 30
0.0
 11
844.1675314594506
 21
136.4009626261081
 31
0.0
 12
843.5175314594506
 22
136.5092959594414
 32
0.0
 13
843.5175314594506
 23
136.5092959594414
 33
0.0
  0
SOLID
  5
5DBC
330
5BF0
100
AcDbEntity
  8
标注
 62
     3
 48
5.0
100
AcDbTrace
 10
867.8674814594483
 20
136.6176292927747
 30
0.0
 11
867.8674814594483
 21
136.4009626261081
 31
0.0
 12
868.5174814594482
 22
136.5092959594414
 32
0.0
 13
868.5174814594482
 23
136.5092959594414
 33
0.0
  0
POINT
  5
5DBD
330
5BF0
100
AcDbEntity
  8
DEFPOINTS
 62
     0
 48
5.0
100
AcDbPoint
 10
843.5175314594506
 20
141.2436779630328
 30
0.0
  0
POINT
  5
5DBE
330
5BF0
100
AcDbEntity
  8
DEFPOINTS
 62
     0
 48
5.0
100
AcDbPoint
 10
868.5174814594482
 20
141.2436779630328
 30
0.0
  0
POINT
  5
5DBF
330
5BF0
100
AcDbEntity
  8
DEFPOINTS
 62
     0
 48
5.0
100
AcDbPoint
 10
868.5174814594482
 20
136.5092959594414
 30
0.0
  0
ENDBLK
  5
5BF2
330
5BF0
100
AcDbEntity
  8
0
100
AcDbBlockEnd
  0
BLOCK
  5
5BFE
330
5BFD
100
AcDbEntity
  8
0
100
AcDbBlockBegin
  2
*D69
 70
     1
 10
0.0
 20
0.0
 30
0.0
  3
*D69
  1

  0
LINE
  5
5D74
330
5BFD
100
AcDbEntity
  8
标注
  6
Continuous
 62
     3
 48
5.0
370
    13
100
AcDbLine
 10
845.3924253833745
 20
144.7518973168996
 30
0.0
 11
845.3924253833745
 21
137.7389106102885
 31
0.0
  0
LINE
  5
5D75
330
5BFD
100
AcDbEntity
  8
标注
  6
Continuous
 62
     3
 48
5.0
370
    13
100
AcDbLine
 10
866.642587535526
 20
144.7518973168996
 30
0.0
 11
866.642587535526
 21
137.7389106102885
 31
0.0
  0
LINE
  5
5D76
330
5BFD
100
AcDbEntity
  8
标注
  6
Continuous
 62
     3
 48
5.0
370
    13
100
AcDbLine
 10
846.0424253833744
 20
138.0589106102885
 30
0.0
 11
854.2611175705614
 21
138.0589106102885
 31
0.0
  0
LINE
  5
5D77
330
5BFD
100
AcDbEntity
  8
标注
  6
Continuous
 62
     3
 48
5.0
370
    13
100
AcDbLine
 10
865.9925875355259
 20
138.0589106102885
 30
0.0
 11
857.7738953483391
 21
138.0589106102885
 31
0.0
  0
MTEXT
  5
5D78
330
5BFD
100
AcDbEntity
  8
标注
 62
     3
 48
5.0
100
AcDbMText
 10
856.0175064594503
 20
138.0589106102885
 30
0.0
 40
0.65
 41
0.0
 71
     5
 72
     1
  1
\A1;21 1/4"
 73
     1
 44
1.0
1001
ACAD
1000
MTEXTBEGIN
1070
    73
1070
     1
1070
    44
1040
1.0
1070
    74
1070
     0
1000
MTEXTEND
  0
SOLID
  5
5D79
330
5BFD
100
AcDbEntity
  8
标注
 62
     3
 48
5.0
100
AcDbTrace
 10
846.0424253833744
 20
138.1672439436218
 30
0.0
 11
846.0424253833744
 21
137.9505772769552
 31
0.0
 12
845.3924253833745
 22
138.0589106102885
 32
0.0
 13
845.3924253833745
 23
138.0589106102885
 33
0.0
  0
SOLID
  5
5D7A
330
5BFD
100
AcDbEntity
  8
标注
 62
     3
 48
5.0
100
AcDbTrace
 10
865.9925875355259
 20
138.1672439436218
 30
0.0
 11
865.9925875355259
 21
137.9505772769552
 31
0.0
 12
866.642587535526
 22
138.0589106102885
 32
0.0
 13
866.642587535526
 23
138.0589106102885
 33
0.0
  0
POINT
  5
5D7B
330
5BFD
100
AcDbEntity
  8
DEFPOINTS
 62
     0
 48
5.0
100
AcDbPoint
 10
845.3924253833745
 20
145.6318973168996
 30
0.0
  0
POINT
  5
5D7C
330
5BFD
100
AcDbEntity
  8
DEFPOINTS
 62
     0
 48
5.0
100
AcDbPoint
 10
866.642587535526
 20
145.6318973168996
 30
0.0
  0
POINT
  5
5D7D
330
5BFD
100
AcDbEntity
  8
DEFPOINTS
 62
     0
 48
5.0
100
AcDbPoint
 10
866.642587535526
 20
138.0589106102885
 30
0.0
  0
ENDBLK
  5
5BFF
330
5BFD
100
AcDbEntity
  8
0
100
AcDbBlockEnd
  0
BLOCK
  5
5C0B
330
5C0A
100
AcDbEntity
  8
0
100
AcDbBlockBegin
  2
*D70
 70
     1
 10
0.0
 20
0.0
 30
0.0
  3
*D70
  1

  0
LINE
  5
5D92
330
5C0A
100
AcDbEntity
  8
标注
  6
Continuous
 62
     3
 48
5.0
370
    13
100
AcDbLine
 10
863.587996260192
 20
141.5572001999255
 30
0.0
 11
870.7681115257214
 21
141.5572001999255
 31
0.0
  0
LINE
  5
5D93
330
5C0A
100
AcDbEntity
  8
标注
  6
Continuous
 62
     3
 48
5.0
370
    13
100
AcDbLine
 10
856.8975064594507
 20
160.4576757261395
 30
0.0
 11
870.7681115257214
 21
160.4576757261395
 31
0.0
  0
LINE
  5
5D94
330
5C0A
100
AcDbEntity
  8
标注
  6
Continuous
 62
     3
 48
5.0
370
    13
100
AcDbLine
 10
870.4481115257214
 20
142.2072001999255
 30
0.0
 11
870.4481115257214
 21
149.2799379630397
 31
0.0
  0
LINE
  5
5D95
330
5C0A
100
AcDbEntity
  8
标注
  6
Continuous
 62
     3
 48
5.0
370
    13
100
AcDbLine
 10
870.4481115257214
 20
159.8076757261395
 30
0.0
 11
870.4481115257214
 21
152.7349379630396
 31
0.0
  0
MTEXT
  5
5D96
330
5C0A
100
AcDbEntity
  8
标注
 62
     3
 48
5.0
100
AcDbMText
 10
870.4481115257433
 20
151.0074379630398
 30
0.0
 40
0.65
 41
0.0
 71
     5
 72
     1
  1
\A1;18 7/8"
 11
0.0000000000000001
 21
1.0
 31
0.0
 73
     1
 44
1.0
1001
ACAD
1000
MTEXTBEGIN
1070
    73
1070
     1
1070
    44
1040
1.0
1070
    74
1070
     0
1000
MTEXTEND
  0
SOLID
  5
5D97
330
5C0A
100
AcDbEntity
  8
标注
 62
     3
 48
5.0
100
AcDbTrace
 10
870.3397781923881
 20
142.2072001999255
 30
0.0
 11
870.5564448590548
 21
142.2072001999255
 31
0.0
 12
870.4481115257214
 22
141.5572001999255
 32
0.0
 13
870.4481115257214
 23
141.5572001999255
 33
0.0
  0
SOLID
  5
5D98
330
5C0A
100
AcDbEntity
  8
标注
 62
     3
 48
5.0
100
AcDbTrace
 10
870.3397781923881
 20
159.8076757261395
 30
0.0
 11
870.5564448590548
 21
159.8076757261395
 31
0.0
 12
870.4481115257214
 22
160.4576757261395
 32
0.0
 13
870.4481115257214
 23
160.4576757261395
 33
0.0
  0
POINT
  5
5D99
330
5C0A
100
AcDbEntity
  8
DEFPOINTS
 62
     0
 48
5.0
100
AcDbPoint
 10
862.7079962601921
 20
141.5572001999255
 30
0.0
  0
POINT
  5
5D9A
330
5C0A
100
AcDbEntity
  8
DEFPOINTS
 62
     0
 48
5.0
100
AcDbPoint
 10
856.0175064594506
 20
160.4576757261395
 30
0.0
  0
POINT
  5
5D9B
330
5C0A
100
AcDbEntity
  8
DEFPOINTS
 62
     0
 48
5.0
100
AcDbPoint
 10
870.4481115257214
 20
160.4576757261395
 30
0.0
  0
ENDBLK
  5
5C0C
330
5C0A
100
AcDbEntity
  8
0
100
AcDbBlockEnd
  0
BLOCK
  5
5C18
330
5C17
100
AcDbEntity
  8
0
100
AcDbBlockBegin
  2
*D71
 70
     1
 10
0.0
 20
0.0
 30
0.0
  3
*D71
  1

  0
LINE
  5
5D88
330
5C17
100
AcDbEntity
  8
标注
  6
Continuous
 62
     3
 48
5.0
370
    13
100
AcDbLine
 10
868.1376414594504
 20
162.0310379630361
 30
0.0
 11
872.5363543102572
 21
162.0310379630361
 31
0.0
  0
LINE
  5
5D89
330
5C17
100
AcDbEntity
  8
标注
  6
Continuous
 62
     3
 48
5.0
370
    13
100
AcDbLine
 10
868.1376414594504
 20
139.9838379630352
 30
0.0
 11
872.5363543102572
 21
139.9838379630352
 31
0.0
  0
LINE
  5
5D8A
330
5C17
100
AcDbEntity
  8
标注
  6
Continuous
 62
     3
 48
5.0
370
    13
100
AcDbLine
 10
872.2163543102571
 20
161.3810379630361
 30
0.0
 11
872.2163543102571
 21
151.8393824074945
 31
0.0
  0
LINE
  5
5D8B
330
5C17
100
AcDbEntity
  8
标注
  6
Continuous
 62
     3
 48
5.0
370
    13
100
AcDbLine
 10
872.2163543102571
 20
140.6338379630352
 30
0.0
 11
872.2163543102571
 21
150.1754935186056
 31
0.0
  0
MTEXT
  5
5D8C
330
5C17
100
AcDbEntity
  8
标注
 62
     3
 48
5.0
100
AcDbMText
 10
872.2163543102789
 20
151.0074379630502
 30
0.0
 40
0.65
 41
0.0
 71
     5
 72
     1
  1
\A1;22"
 11
0.0000000000000001
 21
1.0
 31
0.0
 73
     1
 44
1.0
1001
ACAD
1000
MTEXTBEGIN
1070
    73
1070
     1
1070
    44
1040
1.0
1070
    74
1070
     0
1000
MTEXTEND
  0
SOLID
  5
5D8D
330
5C17
100
AcDbEntity
  8
标注
 62
     3
 48
5.0
100
AcDbTrace
 10
872.1080209769237
 20
161.3810379630361
 30
0.0
 11
872.3246876435904
 21
161.3810379630361
 31
0.0
 12
872.2163543102571
 22
162.0310379630361
 32
0.0
 13
872.2163543102571
 23
162.0310379630361
 33
0.0
  0
SOLID
  5
5D8E
330
5C17
100
AcDbEntity
  8
标注
 62
     3
 48
5.0
100
AcDbTrace
 10
872.1080209769237
 20
140.6338379630352
 30
0.0
 11
872.3246876435904
 21
140.6338379630352
 31
0.0
 12
872.2163543102571
 22
139.9838379630352
 32
0.0
 13
872.2163543102571
 23
139.9838379630352
 33
0.0
  0
POINT
  5
5D8F
330
5C17
100
AcDbEntity
  8
DEFPOINTS
 62
     0
 48
5.0
100
AcDbPoint
 10
867.2576414594505
 20
162.0310379630361
 30
0.0
  0
POINT
  5
5D90
330
5C17
100
AcDbEntity
  8
DEFPOINTS
 62
     0
 48
5.0
100
AcDbPoint
 10
867.2576414594505
 20
139.9838379630352
 30
0.0
  0
POINT
  5
5D91
330
5C17
100
AcDbEntity
  8
DEFPOINTS
 62
     0
 48
5.0
100
AcDbPoint
 10
872.2163543102571
 20
139.9838379630352
 30
0.0
  0
ENDBLK
  5
5C19
330
5C17
100
AcDbEntity
  8
0
100
AcDbBlockEnd
  0
BLOCK
  5
5C25
330
5C24
100
AcDbEntity
  8
0
100
AcDbBlockBegin
  2
*D72
 70
     1
 10
0.0
 20
0.0
 30
0.0
  3
*D72
  1

  0
LINE
  5
5D9C
330
5C24
100
AcDbEntity
  8
标注
  6
Continuous
 62
     3
 48
5.0
370
    13
100
AcDbLine
 10
858.9537918717123
 20
169.1500307450727
 30
0.0
 11
870.9589759600634
 21
169.1500307450727
 31
0.0
  0
LINE
  5
5D9D
330
5C24
100
AcDbEntity
  8
标注
  6
Continuous
 62
     3
 48
5.0
370
    13
100
AcDbLine
 10
869.125293792111
 20
178.1592234954981
 30
0.0
 11
870.9589759600634
 21
178.1592234954981
 31
0.0
  0
LINE
  5
5D9E
330
5C24
100
AcDbEntity
  8
标注
  6
Continuous
 62
     3
 48
5.0
370
    13
100
AcDbLine
 10
870.6389759600634
 20
169.8000307450727
 30
0.0
 11
870.6389759600634
 21
173.5845881675455
 31
0.0
  0
LINE
  5
5D9F
330
5C24
100
AcDbEntity
  8
标注
  6
Continuous
 62
     3
 48
5.0
370
    13
100
AcDbLine
 10
870.6389759600634
 20
177.509223495498
 30
0.0
 11
870.6389759600634
 21
174.7934770564344
 31
0.0
  0
MTEXT
  5
5DA0
330
5C24
100
AcDbEntity
  8
标注
 62
     3
 48
5.0
100
AcDbMText
 10
870.6389759600634
 20
174.1890326119901
 30
0.0
 40
0.65
 41
0.0
 71
     5
 72
     1
  1
\A1;9"
 11
0.0000000000000001
 21
1.0
 31
0.0
 73
     1
 44
1.0
1001
ACAD
1000
MTEXTBEGIN
1070
    73
1070
     1
1070
    44
1040
1.0
1070
    74
1070
     0
1000
MTEXTEND
  0
SOLID
  5
5DA1
330
5C24
100
AcDbEntity
  8
标注
 62
     3
 48
5.0
100
AcDbTrace
 10
870.53064262673
 20
169.8000307450727
 30
0.0
 11
870.7473092933966
 21
169.8000307450727
 31
0.0
 12
870.6389759600634
 22
169.1500307450727
 32
0.0
 13
870.6389759600634
 23
169.1500307450727
 33
0.0
  0
SOLID
  5
5DA2
330
5C24
100
AcDbEntity
  8
标注
 62
     3
 48
5.0
100
AcDbTrace
 10
870.53064262673
 20
177.509223495498
 30
0.0
 11
870.7473092933966
 21
177.509223495498
 31
0.0
 12
870.6389759600634
 22
178.1592234954981
 32
0.0
 13
870.6389759600634
 23
178.1592234954981
 33
0.0
  0
POINT
  5
5DA3
330
5C24
100
AcDbEntity
  8
DEFPOINTS
 62
     0
 48
5.0
100
AcDbPoint
 10
858.0737918717124
 20
169.1500307450727
 30
0.0
  0
POINT
  5
5DA4
330
5C24
100
AcDbEntity
  8
DEFPOINTS
 62
     0
 48
5.0
100
AcDbPoint
 10
868.2452937921109
 20
178.1592234954981
 30
0.0
  0
POINT
  5
5DA5
330
5C24
100
AcDbEntity
  8
DEFPOINTS
 62
     0
 48
5.0
100
AcDbPoint
 10
870.6389759600634
 20
178.1592234954981
 30
0.0
  0
ENDBLK
  5
5C26
330
5C24
100
AcDbEntity
  8
0
100
AcDbBlockEnd
  0
ENDSEC
  0
SECTION
  2
ENTITIES
  0
LINE
  5
5B2C
330
432D
100
AcDbEntity
  8
0
100
AcDbLine
 10
844.7773714594504
 20
162.0310379630349
 30
0.0
 11
867.2576414594505
 21
162.0310379630349
 31
0.0
  0
LINE
  5
5B2D
330
432D
100
AcDbEntity
  8
细实线
100
AcDbLine
 10
844.7773714594504
 20
161.8735579630405
 30
0.0
 11
867.2576414594505
 21
161.8735579630405
 31
0.0
  0
LINE
  5
5B2E
330
432D
100
AcDbEntity
  8
细实线
100
AcDbLine
 10
845.0529614594481
 20
161.2042679630352
 30
0.0
 11
866.9820514594531
 21
161.2042679630352
 31
0.0
  0
LINE
  5
5B2F
330
432D
100
AcDbEntity
  8
细实线
100
AcDbLine
 10
845.0529614594481
 20
161.0664729630474
 30
0.0
 11
866.9820514594531
 21
161.0664729630474
 31
0.0
  0
ARC
  5
5B30
330
432D
100
AcDbEntity
  8
细实线
100
AcDbCircle
 10
845.0529614594481
 20
160.4956079630459
 30
0.0
 40
0.5708650000000001
100
AcDbArc
 50
90.0
 51
180.0
  0
ARC
  5
5B31
330
432D
100
AcDbEntity
  8
0
100
AcDbCircle
 10
844.7773714594504
 20
160.7711979630361
 30
0.0
 40
1.25984
100
AcDbArc
 50
90.0
 51
180.0
  0
ARC
  5
5B32
330
432D
100
AcDbEntity
  8
细实线
100
AcDbCircle
 10
844.7773714594504
 20
160.7711979630361
 30
0.0
 40
1.10236
100
AcDbArc
 50
90.0
 51
180.0
  0
LINE
  5
5B33
330
432D
100
AcDbEntity
  8
0
100
AcDbLine
 10
868.5174814594493
 20
160.7711979630361
 30
0.0
 11
868.5174814594493
 21
141.2436779630328
 31
0.0
  0
LINE
  5
5B34
330
432D
100
AcDbEntity
  8
细实线
100
AcDbLine
 10
868.3600014594547
 20
160.7711979630361
 30
0.0
 11
868.3600014594547
 21
141.2436779630328
 31
0.0
  0
LINE
  5
5B35
330
432D
100
AcDbEntity
  8
细实线
100
AcDbLine
 10
867.6907114594497
 20
160.4956079630459
 30
0.0
 11
867.6907114594497
 21
141.5192679630376
 31
0.0
  0
ARC
  5
5B36
330
432D
100
AcDbEntity
  8
细实线
100
AcDbCircle
 10
866.9820514594531
 20
160.4956079630459
 30
0.0
 40
0.7086600000000001
100
AcDbArc
 50
0.0
 51
90.0
  0
LINE
  5
5B37
330
432D
100
AcDbEntity
  8
细实线
100
AcDbLine
 10
867.5529164594474
 20
160.4956079630459
 30
0.0
 11
867.5529164594474
 21
141.5192679630376
 31
0.0
  0
ARC
  5
5B38
330
432D
100
AcDbEntity
  8
细实线
100
AcDbCircle
 10
866.9820514594531
 20
160.4956079630459
 30
0.0
 40
0.5708650000000001
100
AcDbArc
 50
0.0
 51
90.0
  0
ARC
  5
5B39
102
{ACAD_REACTORS
330
5B97
102
}
330
432D
100
AcDbEntity
  8
0
100
AcDbCircle
 10
867.2576414594505
 20
160.7711979630361
 30
0.0
 40
1.25984
100
AcDbArc
 50
0.0
 51
90.0
  0
ARC
  5
5B3A
330
432D
100
AcDbEntity
  8
细实线
100
AcDbCircle
 10
867.2576414594505
 20
160.7711979630361
 30
0.0
 40
1.10236
100
AcDbArc
 50
0.0
 51
90.0
  0
LINE
  5
5B3B
330
432D
100
AcDbEntity
  8
0
100
AcDbLine
 10
867.2576414594505
 20
139.983837963034
 30
0.0
 11
844.7773714594504
 21
139.983837963034
 31
0.0
  0
LINE
  5
5B3C
330
432D
100
AcDbEntity
  8
细实线
100
AcDbLine
 10
867.2576414594505
 20
140.141317963043
 30
0.0
 11
844.7773714594504
 21
140.141317963043
 31
0.0
  0
LINE
  5
5B3D
330
432D
100
AcDbEntity
  8
细实线
100
AcDbLine
 10
866.9820514594531
 20
140.8106079630337
 30
0.0
 11
845.0529614594481
 21
140.8106079630337
 31
0.0
  0
ARC
  5
5B3E
330
432D
100
AcDbEntity
  8
细实线
100
AcDbCircle
 10
866.9820514594531
 20
141.5192679630376
 30
0.0
 40
0.7086600000000001
100
AcDbArc
 50
270.0
 51
0.0
  0
LINE
  5
5B3F
330
432D
100
AcDbEntity
  8
细实线
100
AcDbLine
 10
866.9820514594531
 20
140.9484029630361
 30
0.0
 11
845.0529614594481
 21
140.9484029630361
 31
0.0
  0
ARC
  5
5B40
330
432D
100
AcDbEntity
  8
细实线
100
AcDbCircle
 10
866.9820514594531
 20
141.5192679630376
 30
0.0
 40
0.5708650000000001
100
AcDbArc
 50
270.0
 51
0.0
  0
ARC
  5
5B41
102
{ACAD_REACTORS
330
5B8E
330
5B97
102
}
330
432D
100
AcDbEntity
  8
0
100
AcDbCircle
 10
867.2576414594505
 20
141.2436779630328
 30
0.0
 40
1.25984
100
AcDbArc
 50
270.0
 51
0.0
  0
ARC
  5
5B42
330
432D
100
AcDbEntity
  8
细实线
100
AcDbCircle
 10
867.2576414594505
 20
141.2436779630328
 30
0.0
 40
1.10236
100
AcDbArc
 50
270.0
 51
0.0
  0
LINE
  5
5B43
330
432D
100
AcDbEntity
  8
0
100
AcDbLine
 10
843.5175314594518
 20
141.2436779630328
 30
0.0
 11
843.5175314594518
 21
160.7711979630361
 31
0.0
  0
LINE
  5
5B44
330
432D
100
AcDbEntity
  8
细实线
100
AcDbLine
 10
843.6750114594534
 20
141.2436779630328
 30
0.0
 11
843.6750114594534
 21
160.7711979630361
 31
0.0
  0
LINE
  5
5B45
330
432D
100
AcDbEntity
  8
细实线
100
AcDbLine
 10
844.3443014594514
 20
141.5192679630376
 30
0.0
 11
844.3443014594514
 21
160.4956079630459
 31
0.0
  0
ARC
  5
5B46
330
432D
100
AcDbEntity
  8
细实线
100
AcDbCircle
 10
845.0529614594481
 20
160.4956079630459
 30
0.0
 40
0.7086600000000001
100
AcDbArc
 50
90.0
 51
180.0
  0
ARC
  5
5B47
330
432D
100
AcDbEntity
  8
细实线
100
AcDbCircle
 10
845.0529614594481
 20
141.5192679630376
 30
0.0
 40
0.7086600000000001
100
AcDbArc
 50
180.0
 51
270.0
  0
LINE
  5
5B48
330
432D
100
AcDbEntity
  8
细实线
100
AcDbLine
 10
844.4820964594537
 20
141.5192679630376
 30
0.0
 11
844.4820964594537
 21
160.4956079630459
 31
0.0
  0
ARC
  5
5B49
330
432D
100
AcDbEntity
  8
细实线
100
AcDbCircle
 10
845.0529614594481
 20
141.5192679630376
 30
0.0
 40
0.5708650000000001
100
AcDbArc
 50
180.0
 51
270.0
  0
ARC
  5
5B4A
102
{ACAD_REACTORS
330
5B8E
102
}
330
432D
100
AcDbEntity
  8
0
100
AcDbCircle
 10
844.7773714594504
 20
141.2436779630328
 30
0.0
 40
1.25984
100
AcDbArc
 50
180.0
 51
270.0
  0
ARC
  5
5B4B
330
432D
100
AcDbEntity
  8
细实线
100
AcDbCircle
 10
844.7773714594504
 20
141.2436779630328
 30
0.0
 40
1.10236
100
AcDbArc
 50
180.0
 51
270.0
  0
LINE
  5
5B4C
330
432D
100
AcDbEntity
  8
0
100
AcDbLine
 10
844.2307377423412
 20
178.1592234954981
 30
0.0
 11
843.6445845304033
 21
178.1592234954981
 31
0.0
  0
LINE
  5
5B4D
330
432D
100
AcDbEntity
  8
虚线
 62
     4
 48
0.1
100
AcDbLine
 10
844.2307377423412
 20
178.1119794954969
 30
0.0
 11
843.6445845304033
 21
178.1119794954969
 31
0.0
  0
LINE
  5
5B4E
330
432D
100
AcDbEntity
  8
虚线
 62
     4
 48
0.1
100
AcDbLine
 10
867.4393527423372
 20
177.9623734954906
 30
0.0
 11
866.6825683188207
 21
177.9623734954906
 31
0.0
  0
LINE
  5
5B4F
330
432D
100
AcDbEntity
  8
虚线
 62
     4
 48
0.1
100
AcDbLine
 10
867.4393527423372
 20
177.9151294954894
 30
0.0
 11
866.6825683188207
 21
177.9151294954894
 31
0.0
  0
ARC
  5
5B50
330
432D
100
AcDbEntity
  8
虚线
 62
     4
 48
0.1
100
AcDbCircle
 10
867.4393527423372
 20
178.0411134955024
 30
0.0
 40
0.07874
100
AcDbArc
 50
270.0
 51
325.0079797999033
  0
ARC
  5
5B51
330
432D
100
AcDbEntity
  8
虚线
 62
     4
 48
0.1
100
AcDbCircle
 10
867.4393527423372
 20
178.0411134955024
 30
0.0
 40
0.125984
100
AcDbArc
 50
270.0
 51
325.0079797999033
  0
LINE
  5
5B52
330
432D
100
AcDbEntity
  8
虚线
 62
     4
 48
0.1
100
AcDbLine
 10
845.2073100036932
 20
177.9623734954906
 30
0.0
 11
844.450525580177
 21
177.9623734954906
 31
0.0
  0
LINE
  5
5B53
330
432D
100
AcDbEntity
  8
虚线
 62
     4
 48
0.1
100
AcDbLine
 10
845.2073100036932
 20
177.9151294954894
 30
0.0
 11
844.450525580177
 21
177.9151294954894
 31
0.0
  0
ARC
  5
5B54
330
432D
100
AcDbEntity
  8
虚线
 62
     4
 48
0.1
100
AcDbCircle
 10
844.450525580177
 20
178.0411134955024
 30
0.0
 40
0.07874
100
AcDbArc
 50
214.9920202000967
 51
270.0
1001
GENIUS_GENODEF_13
1002
{
1000
HIER
1070
     0
1002
}
1002
{
1000
MANEDIT
1070
     0
1002
}
1002
{
1000
NOSEL
1070
     0
1002
}
1002
{
1000
BEHIND
1070
     0
1002
}
1002
{
1000
OTHER
1070
     0
1002
}
1002
{
1000
REACTOR
1002
}
1001
GENIUS_GENOBJ-N-FIL_13
1002
{
1000
OWNER
1000
GEN
1002
}
  0
ARC
  5
5B55
330
432D
100
AcDbEntity
  8
虚线
 62
     4
 48
0.1
100
AcDbCircle
 10
844.450525580177
 20
178.0411134955024
 30
0.0
 40
0.125984
100
AcDbArc
 50
214.9920202000967
 51
270.0
1001
GENIUS_GENODEF_13
1002
{
1000
HIER
1070
     0
1002
}
1002
{
1000
MANEDIT
1070
     0
1002
}
1002
{
1000
NOSEL
1070
     0
1002
}
1002
{
1000
BEHIND
1070
     0
1002
}
1002
{
1000
OTHER
1070
     0
1002
}
1002
{
1000
REACTOR
1002
}
1001
GENIUS_GENOBJ-N-FIL_13
1002
{
1000
OWNER
1000
GEN
1002
}
  0
LINE
  5
5B56
330
432D
100
AcDbEntity
  8
0
100
AcDbLine
 10
843.4449641612584
 20
177.9230034954919
 30
0.0
 11
843.5790688902262
 21
178.1241605889475
 31
0.0
  0
LINE
  5
5B57
330
432D
100
AcDbEntity
  8
虚线
 62
     4
 48
0.1
100
AcDbLine
 10
843.4842735453631
 20
177.8967972394269
 30
0.0
 11
843.6183782743309
 21
178.0979543328825
 31
0.0
  0
ARC
  5
5B58
330
432D
100
AcDbEntity
  8
0
100
AcDbCircle
 10
843.6445845304033
 20
178.080483495501
 30
0.0
 40
0.07874
100
AcDbArc
 50
90.0
 51
146.309932468007
  0
ARC
  5
5B59
330
432D
100
AcDbEntity
  8
虚线
 62
     4
 48
0.1
100
AcDbCircle
 10
843.6445845304033
 20
178.080483495501
 30
0.0
 40
0.031496
100
AcDbArc
 50
90.0
 51
146.309932468007
  0
LINE
  5
5B5A
330
432D
100
AcDbEntity
  8
虚线
 62
     4
 48
0.1
100
AcDbLine
 10
844.3860192587518
 20
177.9959590705069
 30
0.0
 11
844.2952440637593
 21
178.1256379204964
 31
0.0
  0
LINE
  5
5B5B
330
432D
100
AcDbEntity
  8
虚线
 62
     4
 48
0.1
100
AcDbLine
 10
844.3473154658997
 20
177.9688664155068
 30
0.0
 11
844.2565402709071
 21
178.0985452654961
 31
0.0
  0
ARC
  5
5B5C
330
432D
100
AcDbEntity
  8
虚线
 62
     4
 48
0.1
100
AcDbCircle
 10
844.2307377423412
 20
178.080483495501
 30
0.0
 40
0.07874
100
AcDbArc
 50
34.99202020009672
 51
90.0
  0
ARC
  5
5B5D
330
432D
100
AcDbEntity
  8
虚线
 62
     4
 48
0.1
100
AcDbCircle
 10
844.2307377423412
 20
178.080483495501
 30
0.0
 40
0.031496
100
AcDbArc
 50
34.99202020009672
 51
90.0
  0
LINE
  5
5B5E
330
432D
100
AcDbEntity
  8
虚线
 62
     4
 48
0.1
100
AcDbLine
 10
867.5038590637623
 20
177.9959590705069
 30
0.0
 11
867.594634258755
 21
178.1256379204964
 31
0.0
  0
LINE
  5
5B5F
330
432D
100
AcDbEntity
  8
虚线
 62
     4
 48
0.1
100
AcDbLine
 10
867.5425628566145
 20
177.9688664155068
 30
0.0
 11
867.6333380516071
 21
178.0985452654961
 31
0.0
  0
LINE
  5
5B60
330
432D
100
AcDbEntity
  8
0
100
AcDbLine
 10
868.4449141612558
 20
177.9230034954919
 30
0.0
 11
868.310809432288
 21
178.1241605889475
 31
0.0
  0
LINE
  5
5B61
330
432D
100
AcDbEntity
  8
虚线
 62
     4
 48
0.1
100
AcDbLine
 10
868.4056047771512
 20
177.8967972394269
 30
0.0
 11
868.2715000481831
 21
178.0979543328825
 31
0.0
  0
ARC
  5
5B62
330
432D
100
AcDbEntity
  8
0
100
AcDbCircle
 10
868.2452937921109
 20
178.080483495501
 30
0.0
 40
0.07874
100
AcDbArc
 50
33.69006753199283
 51
90.0
  0
ARC
  5
5B63
330
432D
100
AcDbEntity
  8
虚线
 62
     4
 48
0.1
100
AcDbCircle
 10
868.2452937921109
 20
178.080483495501
 30
0.0
 40
0.031496
100
AcDbArc
 50
33.69006753199283
 51
90.0
  0
LINE
  5
5B64
102
{ACAD_REACTORS
330
5B9A
102
}
330
432D
100
AcDbEntity
  8
0
100
AcDbLine
 10
867.6591405801726
 20
178.1592234954981
 30
0.0
 11
868.2452937921109
 21
178.1592234954981
 31
0.0
  0
LINE
  5
5B65
102
{ACAD_REACTORS
330
5B9A
102
}
330
432D
100
AcDbEntity
  8
虚线
 62
     4
 48
0.1
100
AcDbLine
 10
867.6591405801726
 20
178.1119794954969
 30
0.0
 11
868.2452937921109
 21
178.1119794954969
 31
0.0
  0
ARC
  5
5B66
330
432D
100
AcDbEntity
  8
虚线
 62
     4
 48
0.1
100
AcDbCircle
 10
867.6591405801726
 20
178.080483495501
 30
0.0
 40
0.07874
100
AcDbArc
 50
90.0
 51
145.0079797999032
  0
ARC
  5
5B67
330
432D
100
AcDbEntity
  8
虚线
 62
     4
 48
0.1
100
AcDbCircle
 10
867.6591405801726
 20
178.080483495501
 30
0.0
 40
0.031496
100
AcDbArc
 50
90.0
 51
145.0079797999032
  0
ARC
  5
5B68
330
432D
100
AcDbEntity
  8
0
100
AcDbCircle
 10
852.7379583870999
 20
152.9067473005956
 30
0.0
 40
7.086599999999998
100
AcDbArc
 50
106.1170992139022
 51
177.9956634505801
  0
LINE
  5
5B69
102
{ACAD_REACTORS
330
5B91
102
}
330
432D
100
AcDbEntity
  8
0
100
AcDbLine
 10
845.3924253833749
 20
145.6318973169066
 30
0.0
 11
845.6556940914881
 21
153.1546021111384
 31
0.0
  0
ARC
  5
5B6A
102
{ACAD_REACTORS
330
5B94
102
}
330
432D
100
AcDbEntity
  8
0
100
AcDbCircle
 10
856.0175064594506
 20
141.5572001999347
 30
0.0
 40
18.9004755262203
100
AcDbArc
 50
73.88290078609774
 51
106.1170992139022
  0
ARC
  5
5B6B
102
{ACAD_REACTORS
330
5B91
102
}
330
432D
100
AcDbEntity
  8
0
100
AcDbCircle
 10
849.3270166587164
 20
145.4942001999255
 30
0.0
 40
3.936999999999999
100
AcDbArc
 50
177.9956634505801
 51
270.0
  0
ARC
  5
5B6C
330
432D
100
AcDbEntity
  8
0
100
AcDbCircle
 10
859.2970545318086
 20
152.9067473005956
 30
0.0
 40
7.086599999999998
100
AcDbArc
 50
2.004336549419809
 51
73.88290078609774
  0
LINE
  5
5B6D
330
432D
100
AcDbEntity
  8
0
100
AcDbLine
 10
849.3270166587164
 20
141.5572001999347
 30
0.0
 11
862.7079962601921
 21
141.5572001999347
 31
0.0
  0
LINE
  5
5B6E
102
{ACAD_REACTORS
330
5B91
102
}
330
432D
100
AcDbEntity
  8
0
100
AcDbLine
 10
866.6425875355264
 20
145.6318973169066
 30
0.0
 11
866.3793188274132
 21
153.1546021111384
 31
0.0
  0
ARC
  5
5B6F
102
{ACAD_REACTORS
330
5B94
102
}
330
432D
100
AcDbEntity
  8
0
100
AcDbCircle
 10
862.7079962601921
 20
145.4942001999255
 30
0.0
 40
3.936999999999999
100
AcDbArc
 50
270.0
 51
2.004336549419809
  0
LINE
  5
5B70
330
432D
100
AcDbEntity
  8
虚线
 62
     4
 48
0.1
100
AcDbLine
 10
866.1139802724859
 20
171.3708117910531
 30
0.0
 11
866.5647460288447
 21
177.8525024326039
 31
0.0
  0
LINE
  5
5B71
330
432D
100
AcDbEntity
  8
0
100
AcDbLine
 10
866.1611091884834
 20
171.3675162162065
 30
0.0
 11
866.6118749448353
 21
177.8492068577574
 31
0.0
  0
ARC
  5
5B72
330
432D
100
AcDbEntity
  8
虚线
 62
     4
 48
0.1
100
AcDbCircle
 10
866.6825683188207
 20
177.8442634954948
 30
0.0
 40
0.11811
100
AcDbArc
 50
90.0
 51
176.0000000022001
  0
ARC
  5
5B73
330
432D
100
AcDbEntity
  8
0
100
AcDbCircle
 10
866.6825683188207
 20
177.8442634954948
 30
0.0
 40
0.070866
100
AcDbArc
 50
90.0
 51
176.0000000022001
  0
LINE
  5
5B74
330
432D
100
AcDbEntity
  8
虚线
 62
     4
 48
0.1
100
AcDbLine
 10
845.7758980500212
 20
171.3708117910531
 30
0.0
 11
845.3251322936694
 21
177.8525024326039
 31
0.0
  0
LINE
  5
5B75
330
432D
100
AcDbEntity
  8
0
100
AcDbLine
 10
845.7287691340308
 20
171.3675162162065
 30
0.0
 11
845.2780033776786
 21
177.8492068577574
 31
0.0
  0
ARC
  5
5B76
330
432D
100
AcDbEntity
  8
虚线
 62
     4
 48
0.1
100
AcDbCircle
 10
845.2073100036932
 20
177.8442634954948
 30
0.0
 40
0.11811
100
AcDbArc
 50
3.999999997799871
 51
90.0
  0
ARC
  5
5B77
330
432D
100
AcDbEntity
  8
0
100
AcDbCircle
 10
845.2073100036932
 20
177.8442634954948
 30
0.0
 40
0.070866
100
AcDbArc
 50
3.999999997799871
 51
90.0
  0
CIRCLE
  5
5B78
330
432D
100
AcDbEntity
  8
0
100
AcDbCircle
 10
856.0175064594506
 20
153.7647757261542
 30
0.0
 40
1.771649999999999
  0
CIRCLE
  5
5B79
330
432D
100
AcDbEntity
  8
0
100
AcDbCircle
 10
856.0175064594506
 20
153.7647757261542
 30
0.0
 40
2.283459999999998
  0
CIRCLE
  5
5B7A
330
432D
100
AcDbEntity
  8
0
100
AcDbCircle
 10
856.0175064594506
 20
153.7647757261542
 30
0.0
 40
2.16535
  0
LINE
  5
5B7B
330
432D
100
AcDbEntity
  8
中心线
 48
2.5
370
    13
100
AcDbLine
 10
855.9449391612574
 20
167.7791914054354
 30
0.0
 11
855.9449391612574
 21
170.6604337967395
 31
0.0
  0
ARC
  5
5B7C
330
432D
100
AcDbEntity
  8
虚线
 62
     4
 48
0.1
100
AcDbCircle
 10
855.9449391612574
 20
228.1582600886862
 30
0.0
 40
59.05499999999999
100
AcDbArc
 50
261.5660454773429
 51
267.711712258225
  0
ARC
  5
5B7D
330
432D
100
AcDbEntity
  8
虚线
 62
     4
 48
0.1
100
AcDbCircle
 10
853.5823025066337
 20
169.0323360357828
 30
0.0
 40
0.11811
100
AcDbArc
 50
23.19859050773539
 51
87.711712258225
1001
GENIUS_GENODEF_13
1002
{
1000
HIER
1070
     0
1002
}
1002
{
1000
MANEDIT
1070
     0
1002
}
1002
{
1000
NOSEL
1070
     0
1002
}
1002
{
1000
BEHIND
1070
     0
1002
}
1002
{
1000
OTHER
1070
     0
1002
}
1002
{
1000
REACTOR
1002
}
1001
GENIUS_GENOBJ-N-FIL_13
1002
{
1000
OWNER
1000
GEN
1002
}
  0
ARC
  5
5B7E
330
432D
100
AcDbEntity
  8
虚线
 62
     4
 48
0.1
100
AcDbCircle
 10
847.5432323996711
 20
171.4943958477628
 30
0.0
 40
1.771649999999999
100
AcDbArc
 50
183.9999999977998
 51
261.5660454773429
1001
GENIUS_GENODEF_13
1002
{
1000
HIER
1070
     0
1002
}
1002
{
1000
MANEDIT
1070
     0
1002
}
1002
{
1000
NOSEL
1070
     0
1002
}
1002
{
1000
BEHIND
1070
     0
1002
}
1002
{
1000
OTHER
1070
     0
1002
}
1002
{
1000
REACTOR
1002
}
1001
GENIUS_GENOBJ-N-FIL_13
1002
{
1000
OWNER
1000
GEN
1002
}
  0
ARC
  5
5B7F
330
432D
100
AcDbEntity
  8
0
100
AcDbCircle
 10
855.9449391612574
 20
228.1582600886862
 30
0.0
 40
59.10224399999999
100
AcDbArc
 50
261.5660454773429
 51
267.711712258225
  0
ARC
  5
5B80
330
432D
100
AcDbEntity
  8
0
100
AcDbCircle
 10
853.5823025066337
 20
169.0323360357828
 30
0.0
 40
0.070866
100
AcDbArc
 50
23.19859050773539
 51
87.711712258225
1001
GENIUS_GENODEF_13
1002
{
1000
HIER
1070
     0
1002
}
1002
{
1000
MANEDIT
1070
     0
1002
}
1002
{
1000
NOSEL
1070
     0
1002
}
1002
{
1000
BEHIND
1070
     0
1002
}
1002
{
1000
OTHER
1070
     0
1002
}
1002
{
1000
REACTOR
1002
}
1001
GENIUS_GENOBJ-N-FIL_13
1002
{
1000
OWNER
1000
GEN
1002
}
  0
ARC
  5
5B81
330
432D
100
AcDbEntity
  8
0
100
AcDbCircle
 10
847.5432323996711
 20
171.4943958477628
 30
0.0
 40
1.818893999999999
100
AcDbArc
 50
183.9999999977998
 51
261.5660454773429
1001
GENIUS_GENOBJ-N-FIL_13
1002
{
1000
OWNER
1000
GEN
1002
}
1001
GENIUS_GENODEF_13
1002
{
1000
HIER
1070
     0
1002
}
1002
{
1000
MANEDIT
1070
     0
1002
}
1002
{
1000
NOSEL
1070
     0
1002
}
1002
{
1000
BEHIND
1070
     0
1002
}
1002
{
1000
OTHER
1070
     0
1002
}
1002
{
1000
REACTOR
1002
}
  0
ARC
  5
5B82
330
432D
100
AcDbEntity
  8
虚线
 62
     4
 48
0.1
100
AcDbCircle
 10
855.9449391612574
 20
228.1582600886862
 30
0.0
 40
59.05499999999999
100
AcDbArc
 50
272.2883055772653
 51
278.4339545226571
  0
ARC
  5
5B83
330
432D
100
AcDbEntity
  8
虚线
 62
     4
 48
0.1
100
AcDbCircle
 10
858.3075942155401
 20
169.0323367710183
 30
0.0
 40
0.11811
100
AcDbArc
 50
92.28830557726526
 51
156.8014094922645
1001
GENIUS_GENODEF_13
1002
{
1000
HIER
1070
     0
1002
}
1002
{
1000
MANEDIT
1070
     0
1002
}
1002
{
1000
NOSEL
1070
     0
1002
}
1002
{
1000
BEHIND
1070
     0
1002
}
1002
{
1000
OTHER
1070
     0
1002
}
1002
{
1000
REACTOR
1002
}
1001
GENIUS_GENOBJ-N-FIL_13
1002
{
1000
OWNER
1000
GEN
1002
}
  0
ARC
  5
5B84
330
432D
100
AcDbEntity
  8
虚线
 62
     4
 48
0.1
100
AcDbCircle
 10
864.3466459228433
 20
171.4943958477628
 30
0.0
 40
1.771649999999999
100
AcDbArc
 50
278.4339545226571
 51
356.0000000022001
1001
GENIUS_GENODEF_13
1002
{
1000
HIER
1070
     0
1002
}
1002
{
1000
MANEDIT
1070
     0
1002
}
1002
{
1000
NOSEL
1070
     0
1002
}
1002
{
1000
BEHIND
1070
     0
1002
}
1002
{
1000
OTHER
1070
     0
1002
}
1002
{
1000
REACTOR
1002
}
1001
GENIUS_GENOBJ-N-FIL_13
1002
{
1000
OWNER
1000
GEN
1002
}
  0
ARC
  5
5B85
330
432D
100
AcDbEntity
  8
0
100
AcDbCircle
 10
855.9449391612574
 20
228.1582600886862
 30
0.0
 40
59.10224399999999
100
AcDbArc
 50
272.2883055772653
 51
278.4339545226571
  0
ARC
  5
5B86
330
432D
100
AcDbEntity
  8
0
100
AcDbCircle
 10
858.3075942155401
 20
169.0323367710183
 30
0.0
 40
0.070866
100
AcDbArc
 50
92.28830557726526
 51
156.8014094922645
1001
GENIUS_GENODEF_13
1002
{
1000
HIER
1070
     0
1002
}
1002
{
1000
MANEDIT
1070
     0
1002
}
1002
{
1000
NOSEL
1070
     0
1002
}
1002
{
1000
BEHIND
1070
     0
1002
}
1002
{
1000
OTHER
1070
     0
1002
}
1002
{
1000
REACTOR
1002
}
1001
GENIUS_GENOBJ-N-FIL_13
1002
{
1000
OWNER
1000
GEN
1002
}
  0
ARC
  5
5B87
330
432D
100
AcDbEntity
  8
0
100
AcDbCircle
 10
864.3466459228433
 20
171.4943958477628
 30
0.0
 40
1.818893999999999
100
AcDbArc
 50
278.4339545226571
 51
356.0000000022001
1001
GENIUS_GENODEF_13
1002
{
1000
HIER
1070
     0
1002
}
1002
{
1000
MANEDIT
1070
     0
1002
}
1002
{
1000
NOSEL
1070
     0
1002
}
1002
{
1000
BEHIND
1070
     0
1002
}
1002
{
1000
OTHER
1070
     0
1002
}
1002
{
1000
REACTOR
1002
}
1001
GENIUS_GENOBJ-N-FIL_13
1002
{
1000
OWNER
1000
GEN
1002
}
  0
LINE
  5
5B88
330
432D
100
AcDbEntity
  8
虚线
 62
     4
 48
0.1
100
AcDbLine
 10
866.6825683188207
 20
177.9623734954906
 30
0.0
 11
845.2073100036932
 21
177.9623734954906
 31
0.0
  0
LINE
  5
5B89
330
432D
100
AcDbEntity
  8
细实线
100
AcDbLine
 10
867.6591405801726
 20
178.1592234954981
 30
0.0
 11
844.2307377423412
 21
178.1592234954981
 31
0.0
  0
LINE
  5
5B8A
330
432D
100
AcDbEntity
  8
中心线
100
AcDbLine
 10
853.143496459451
 20
153.7647757261542
 30
0.0
 11
858.8915164594499
 21
153.7647757261542
 31
0.0
  0
LINE
  5
5B8B
330
432D
100
AcDbEntity
  8
中心线
 48
2.5
370
    13
100
AcDbLine
 10
856.0175064594506
 20
162.4247379630354
 30
0.0
 11
856.0175064594506
 21
139.5901379630335
 31
0.0
  0
DIMENSION
  5
5B8C
102
{ACAD_XDICTIONARY
360
5B8D
102
}
102
{ACAD_REACTORS
330
5B8E
102
}
330
432D
100
AcDbEntity
  8
标注
 48
5.0
100
AcDbDimension
  2
*D68
 10
868.5174814594482
 20
136.5092959594414
 30
0.0
 11
856.0175064594494
 21
136.5092959594414
 31
0.0
 70
   160
  1
<>
 71
     5
 42
24.99994999999763
  3
副本STANDARD
100
AcDbAlignedDimension
 13
843.5175314594506
 23
141.2436779630328
 33
0.0
 14
868.5174814594482
 24
141.2436779630328
 34
0.0
100
AcDbRotatedDimension
1001
ACAD_DSTYLE_DIMINSPECT
1070
   396
1000
100%
1070
   395
1000

1070
   394
1070
    33
1070
   393
1070
     0
1001
ACAD
1000
DSTYLE
1002
{
1070
   288
1070
     1
1002
}
  0
DIMENSION
  5
5B8F
102
{ACAD_XDICTIONARY
360
5B90
102
}
102
{ACAD_REACTORS
330
5B91
102
}
330
432D
100
AcDbEntity
  8
标注
 48
5.0
100
AcDbDimension
  2
*D69
 10
866.642587535526
 20
138.0589106102885
 30
0.0
 11
856.0175064594503
 21
138.0589106102885
 31
0.0
 70
   160
  1
<>
 71
     5
 42
21.25016215215146
  3
副本STANDARD
100
AcDbAlignedDimension
 13
845.3924253833745
 23
145.6318973168996
 33
0.0
 14
866.642587535526
 24
145.6318973168996
 34
0.0
100
AcDbRotatedDimension
1001
ACAD_DSTYLE_DIMINSPECT
1070
   396
1000
100%
1070
   395
1000

1070
   394
1070
    33
1070
   393
1070
     0
1001
ACAD
1000
DSTYLE
1002
{
1070
   288
1070
     1
1002
}
  0
DIMENSION
  5
5B92
102
{ACAD_XDICTIONARY
360
5B93
102
}
102
{ACAD_REACTORS
330
5B94
102
}
330
432D
100
AcDbEntity
  8
标注
 48
5.0
100
AcDbDimension
  2
*D70
 10
870.4481115257214
 20
160.4576757261395
 30
0.0
 11
870.4481115257433
 21
151.0074379630398
 31
0.0
 70
   160
  1
<>
 71
     5
 42
18.90047552621402
  3
副本STANDARD
100
AcDbAlignedDimension
 13
862.7079962601921
 23
141.5572001999255
 33
0.0
 14
856.0175064594506
 24
160.4576757261395
 34
0.0
 50
90.0
100
AcDbRotatedDimension
1001
ACAD_DSTYLE_DIMINSPECT
1070
   396
1000
100%
1070
   395
1000

1070
   394
1070
    33
1070
   393
1070
     0
1001
ACAD
1000
DSTYLE
1002
{
1070
   288
1070
     1
1002
}
  0
DIMENSION
  5
5B95
102
{ACAD_XDICTIONARY
360
5B96
102
}
102
{ACAD_REACTORS
330
5B97
102
}
330
432D
100
AcDbEntity
  8
标注
 48
5.0
100
AcDbDimension
  2
*D71
 10
872.2163543102571
 20
139.9838379630352
 30
0.0
 11
872.2163543102789
 21
151.0074379630502
 31
0.0
 70
   160
  1
<>
 71
     5
 42
22.04720000000091
  3
副本STANDARD
100
AcDbAlignedDimension
 13
867.2576414594505
 23
162.0310379630361
 33
0.0
 14
867.2576414594505
 24
139.9838379630352
 34
0.0
 50
90.0
100
AcDbRotatedDimension
1001
ACAD_DSTYLE_DIMINSPECT
1070
   396
1000
100%
1070
   395
1000

1070
   394
1070
    33
1070
   393
1070
     0
1001
ACAD
1000
DSTYLE
1002
{
1070
   288
1070
     1
1002
}
  0
DIMENSION
  5
5B98
102
{ACAD_XDICTIONARY
360
5B99
102
}
102
{ACAD_REACTORS
330
5B9A
102
}
330
432D
100
AcDbEntity
  8
标注
 48
5.0
100
AcDbDimension
  2
*D72
 10
870.6389759600634
 20
178.1592234954981
 30
0.0
 11
870.6389759600634
 21
174.1890326119901
 31
0.0
 70
   160
  1
<>
 71
     5
 42
9.009192750425398
  3
副本STANDARD
100
AcDbAlignedDimension
 13
858.0737918717124
 23
169.1500307450727
 33
0.0
 14
868.2452937921109
 24
178.1592234954981
 34
0.0
 50
90.0
100
AcDbRotatedDimension
1001
ACAD_DSTYLE_DIMINSPECT
1070
   396
1000
100%
1070
   395
1000

1070
   394
1070
    33
1070
   393
1070
     0
1001
ACAD
1000
DSTYLE
1002
{
1070
   288
1070
     1
1002
}
  0
CIRCLE
  5
5B9B
330
432D
100
AcDbEntity
  8
0
100
AcDbCircle
 10
846.3521714594529
 20
159.196397963034
 30
0.0
 40
0.6889750000000002
  0
CIRCLE
  5
5B9C
330
432D
100
AcDbEntity
  8
0
100
AcDbCircle
 10
865.6828414594484
 20
159.196397963034
 30
0.0
 40
0.6889750000000003
  0
ARC
  5
5B9D
330
432D
100
AcDbEntity
  8
细实线
100
AcDbCircle
 10
855.9454844056226
 20
228.158259736268
 30
0.0
 40
59.10224399999999
100
AcDbArc
 50
267.7486488628408
 51
267.7545240265666
1001
GENIUS_GENODEF_13
1002
{
1000
HIER
1070
     0
1002
}
1002
{
1000
MANEDIT
1070
     0
1002
}
1002
{
1000
NOSEL
1070
     0
1002
}
1002
{
1000
BEHIND
1070
     0
1002
}
1002
{
1000
OTHER
1070
     0
1002
}
1002
{
1000
REACTOR
1002
}
1001
GENIUS_GENOBJ-N-FIL_13
1002
{
1000
OWNER
1000
GEN
1002
}
  0
LINE
  5
5B9E
330
432D
100
AcDbEntity
  8
虚线
 62
     4
 48
0.1
100
AcDbLine
 10
854.1732982035311
 20
168.9505523968504
 30
0.0
 11
857.7165982035358
 21
168.9505523968504
 31
0.0
  0
LINE
  5
5B9F
330
432D
100
AcDbEntity
  8
细实线
100
AcDbLine
 10
854.1671877031175
 20
168.9037052270245
 30
0.0
 11
857.7227087039418
 21
168.9037052270245
 31
0.0
  0
LINE
  5
5BA0
330
432D
100
AcDbEntity
  8
虚线
 62
     4
 48
0.1
100
AcDbLine
 10
853.6908627261281
 20
169.0788618441396
 30
0.0
 11
853.7117026326951
 21
169.0302353954715
 31
0.0
  0
LINE
  5
5BA1
330
432D
100
AcDbEntity
  8
细实线
100
AcDbLine
 10
853.7192766781656
 20
169.0125626227048
 30
0.0
 11
853.7205432035325
 21
169.0096073968556
 31
0.0
  0
LINE
  5
5BA2
330
432D
100
AcDbEntity
  8
细实线
100
AcDbLine
 10
853.6298042630507
 20
169.101398396447
 30
0.0
 11
853.6326188207086
 21
169.0948310952329
 31
0.0
  0
LINE
  5
5BA3
330
432D
100
AcDbEntity
  8
细实线
100
AcDbLine
 10
853.6474386383261
 20
169.0602515207969
 30
0.0
 11
853.6682785448929
 21
169.0116250721288
 31
0.0
  0
ARC
  5
5BA4
330
432D
100
AcDbEntity
  8
细实线
100
AcDbCircle
 10
853.7478893725264
 20
169.0457439982523
 30
0.0
 40
0.086614
100
AcDbArc
 50
203.1985905077354
 51
262.5685920242593
1001
GENIUS_GENOBJ-N-FIL_13
1002
{
1000
OWNER
1000
GEN
1002
}
1001
GENIUS_GENODEF_13
1002
{
1000
HIER
1070
     0
1002
}
1002
{
1000
MANEDIT
1070
     0
1002
}
1002
{
1000
NOSEL
1070
     0
1002
}
1002
{
1000
BEHIND
1070
     0
1002
}
1002
{
1000
OTHER
1070
     0
1002
}
1002
{
1000
REACTOR
1002
}
  0
LINE
  5
5BA5
330
432D
100
AcDbEntity
  8
细实线
100
AcDbLine
 10
853.7205432035325
 20
169.0096073968556
 30
0.0
 11
853.727244775596
 21
169.0087332787619
 31
0.0
  0
LINE
  5
5BA6
330
432D
100
AcDbEntity
  8
虚线
 62
     4
 48
0.1
100
AcDbLine
 10
853.7427972888464
 20
169.0067046900761
 30
0.0
 11
854.1732982035311
 21
168.9505523968504
 31
0.0
  0
ARC
  5
5BA7
330
432D
100
AcDbEntity
  8
虚线
 62
     4
 48
0.1
100
AcDbCircle
 10
853.7478893725264
 20
169.0457439982668
 30
0.0
 40
0.03937
100
AcDbArc
 50
203.1985905077354
 51
262.5685920242593
1001
GENIUS_GENODEF_13
1002
{
1000
HIER
1070
     0
1002
}
1002
{
1000
MANEDIT
1070
     0
1002
}
1002
{
1000
NOSEL
1070
     0
1002
}
1002
{
1000
BEHIND
1070
     0
1002
}
1002
{
1000
OTHER
1070
     0
1002
}
1002
{
1000
REACTOR
1002
}
1001
GENIUS_GENOBJ-N-FIL_13
1002
{
1000
OWNER
1000
GEN
1002
}
  0
LINE
  5
5BA8
330
432D
100
AcDbEntity
  8
细实线
100
AcDbLine
 10
853.7366867884403
 20
168.9598575202501
 30
0.0
 11
854.1671877031175
 21
168.9037052270245
 31
0.0
  0
LINE
  5
5BA9
330
432D
100
AcDbEntity
  8
虚线
 62
     4
 48
0.1
100
AcDbLine
 10
858.1990339960459
 20
169.078862579375
 30
0.0
 11
858.1781493048392
 21
169.0301316332292
 31
0.0
  0
LINE
  5
5BAA
330
432D
100
AcDbEntity
  8
细实线
100
AcDbLine
 10
858.1716522098714
 20
169.0149717449779
 30
0.0
 11
858.1693532035343
 21
169.0096073968556
 31
0.0
  0
LINE
  5
5BAB
330
432D
100
AcDbEntity
  8
细实线
100
AcDbLine
 10
858.2424580838406
 20
169.0602522560324
 30
0.0
 11
858.2216178621667
 21
169.0116250721288
 31
0.0
  0
ARC
  5
5BAC
330
432D
100
AcDbEntity
  8
细实线
100
AcDbCircle
 10
858.1420070345401
 20
169.0457439982523
 30
0.0
 40
0.086614
100
AcDbArc
 50
277.4314079757407
 51
336.8014094922646
1001
GENIUS_GENOBJ-N-FIL_13
1002
{
1000
OWNER
1000
GEN
1002
}
1001
GENIUS_GENODEF_13
1002
{
1000
HIER
1070
     0
1002
}
1002
{
1000
MANEDIT
1070
     0
1002
}
1002
{
1000
NOSEL
1070
     0
1002
}
1002
{
1000
BEHIND
1070
     0
1002
}
1002
{
1000
OTHER
1070
     0
1002
}
1002
{
1000
REACTOR
1002
}
  0
LINE
  5
5BAD
330
432D
100
AcDbEntity
  8
细实线
100
AcDbLine
 10
858.1693532035343
 20
169.0096073968556
 30
0.0
 11
858.1636975756692
 21
169.0088697062559
 31
0.0
  0
LINE
  5
5BAE
330
432D
100
AcDbEntity
  8
虚线
 62
     4
 48
0.1
100
AcDbLine
 10
858.1470991182131
 20
169.0067046900761
 30
0.0
 11
857.7165982035358
 21
168.9505523968504
 31
0.0
  0
ARC
  5
5BAF
330
432D
100
AcDbEntity
  8
虚线
 62
     4
 48
0.1
100
AcDbCircle
 10
858.1420070345401
 20
169.0457439982668
 30
0.0
 40
0.03937
100
AcDbArc
 50
277.4314079757407
 51
336.8014094922646
1001
GENIUS_GENODEF_13
1002
{
1000
HIER
1070
     0
1002
}
1002
{
1000
MANEDIT
1070
     0
1002
}
1002
{
1000
NOSEL
1070
     0
1002
}
1002
{
1000
BEHIND
1070
     0
1002
}
1002
{
1000
OTHER
1070
     0
1002
}
1002
{
1000
REACTOR
1002
}
1001
GENIUS_GENOBJ-N-FIL_13
1002
{
1000
OWNER
1000
GEN
1002
}
  0
LINE
  5
5BB0
330
432D
100
AcDbEntity
  8
细实线
100
AcDbLine
 10
858.1532096186267
 20
168.9598575202501
 30
0.0
 11
857.7227087039418
 21
168.9037052270245
 31
0.0
  0
LINE
  5
5BB1
330
432D
100
AcDbEntity
  8
虚线
 62
     4
 48
0.1
100
AcDbLine
 10
853.587018348254
 20
169.1503518522471
 30
0.0
 11
858.297501200591
 21
169.1500147347645
 31
0.0
  0
LINE
  5
5BB2
330
432D
100
AcDbEntity
  8
虚线
 62
     4
 48
0.1
100
AcDbLine
 10
854.1732982035311
 20
168.9505523968504
 30
0.0
 11
854.1671877031175
 21
168.9037052270245
 31
0.0
  0
LINE
  5
5BB3
330
432D
100
AcDbEntity
  8
虚线
 62
     4
 48
0.1
100
AcDbLine
 10
857.7165982035358
 20
168.9505523968504
 30
0.0
 11
857.7227087039418
 21
168.9037052270245
 31
0.0
  0
LINE
  5
5BB4
330
432D
100
AcDbEntity
  8
0
100
AcDbLine
 10
868.4056047771512
 20
177.8967972394269
 30
0.0
 11
868.4449141612558
 21
177.9230034954919
 31
0.0
  0
LINE
  5
5BB5
330
432D
100
AcDbEntity
  8
0
100
AcDbLine
 10
843.4842735453631
 20
177.8967972394269
 30
0.0
 11
843.4449641612584
 21
177.9230034954919
 31
0.0
  0
LINE
  5
5BB6
330
432D
100
AcDbEntity
  8
中心线
370
    13
100
AcDbLine
 10
864.7881853482752
 20
159.196397963034
 30
0.0
 11
866.5774975706217
 21
159.196397963034
 31
0.0
  0
LINE
  5
5BB7
330
432D
100
AcDbEntity
  8
中心线
370
    13
100
AcDbLine
 10
865.6828414594484
 20
158.3469316019139
 30
0.0
 11
865.6828414594484
 21
160.0458643241685
 31
0.0
  0
LINE
  5
5BB8
330
432D
100
AcDbEntity
  8
中心线
370
    13
100
AcDbLine
 10
845.4575153482792
 20
159.196397963034
 30
0.0
 11
847.246827570626
 21
159.196397963034
 31
0.0
  0
LINE
  5
5BB9
330
432D
100
AcDbEntity
  8
中心线
370
    13
100
AcDbLine
 10
846.3521714594529
 20
158.3469316019139
 30
0.0
 11
846.3521714594529
 21
160.0458643241685
 31
0.0
  0
LINE
  5
5BBA
330
432D
100
AcDbEntity
  8
细实线
100
AcDbLine
 10
868.4056047771512
 20
177.8967972394269
 30
0.0
 11
866.6342378230321
 21
177.8960916069148
 31
0.0
  0
LINE
  5
5BBB
330
432D
100
AcDbEntity
  8
细实线
100
AcDbLine
 10
843.4842735453631
 20
177.8967972394269
 30
0.0
 11
845.2556404994821
 21
177.8960916069148
 31
0.0
  0
LINE
  5
5BBC
330
432D
100
AcDbEntity
  8
0
100
AcDbLine
 10
844.7773714594504
 20
123.8121016682374
 30
0.0
 11
867.2576414594505
 21
123.8121016682374
 31
0.0
  0
LINE
  5
5BBD
330
432D
100
AcDbEntity
  8
细实线
100
AcDbLine
 10
844.7773714594504
 20
123.654621668243
 30
0.0
 11
867.2576414594505
 21
123.654621668243
 31
0.0
  0
LINE
  5
5BBE
330
432D
100
AcDbEntity
  8
细实线
100
AcDbLine
 10
845.0529614594481
 20
122.9853316682378
 30
0.0
 11
866.9820514594531
 21
122.9853316682378
 31
0.0
  0
LINE
  5
5BBF
330
432D
100
AcDbEntity
  8
细实线
100
AcDbLine
 10
845.0529614594481
 20
122.8475366682354
 30
0.0
 11
866.9820514594531
 21
122.8475366682354
 31
0.0
  0
ARC
  5
5BC0
330
432D
100
AcDbEntity
  8
细实线
100
AcDbCircle
 10
845.0529614594481
 20
122.2766716682339
 30
0.0
 40
0.5708650000000001
100
AcDbArc
 50
90.0
 51
180.0
  0
ARC
  5
5BC1
330
432D
100
AcDbEntity
  8
0
100
AcDbCircle
 10
844.7773714594504
 20
122.5522616682386
 30
0.0
 40
1.25984
100
AcDbArc
 50
90.0
 51
180.0
  0
ARC
  5
5BC2
330
432D
100
AcDbEntity
  8
细实线
100
AcDbCircle
 10
844.7773714594504
 20
122.5522616682386
 30
0.0
 40
1.10236
100
AcDbArc
 50
90.0
 51
180.0
  0
LINE
  5
5BC3
330
432D
100
AcDbEntity
  8
0
100
AcDbLine
 10
868.5174814594493
 20
122.5522616682386
 30
0.0
 11
868.5174814594493
 21
103.0247416682354
 31
0.0
  0
LINE
  5
5BC4
330
432D
100
AcDbEntity
  8
细实线
100
AcDbLine
 10
868.3600014594547
 20
122.5522616682386
 30
0.0
 11
868.3600014594547
 21
103.0247416682354
 31
0.0
  0
LINE
  5
5BC5
330
432D
100
AcDbEntity
  8
细实线
100
AcDbLine
 10
867.6907114594497
 20
122.2766716682339
 30
0.0
 11
867.6907114594497
 21
103.3003316682401
 31
0.0
  0
ARC
  5
5BC6
330
432D
100
AcDbEntity
  8
细实线
100
AcDbCircle
 10
866.9820514594531
 20
122.2766716682339
 30
0.0
 40
0.7086600000000001
100
AcDbArc
 50
0.0
 51
90.0
  0
LINE
  5
5BC7
330
432D
100
AcDbEntity
  8
细实线
100
AcDbLine
 10
867.5529164594474
 20
122.2766716682339
 30
0.0
 11
867.5529164594474
 21
103.3003316682401
 31
0.0
  0
ARC
  5
5BC8
330
432D
100
AcDbEntity
  8
细实线
100
AcDbCircle
 10
866.9820514594531
 20
122.2766716682339
 30
0.0
 40
0.5708650000000001
100
AcDbArc
 50
0.0
 51
90.0
  0
ARC
  5
5BC9
330
432D
100
AcDbEntity
  8
0
100
AcDbCircle
 10
867.2576414594505
 20
122.5522616682386
 30
0.0
 40
1.25984
100
AcDbArc
 50
0.0
 51
90.0
  0
ARC
  5
5BCA
330
432D
100
AcDbEntity
  8
细实线
100
AcDbCircle
 10
867.2576414594505
 20
122.5522616682386
 30
0.0
 40
1.10236
100
AcDbArc
 50
0.0
 51
90.0
  0
LINE
  5
5BCB
330
432D
100
AcDbEntity
  8
0
100
AcDbLine
 10
867.2576414594505
 20
101.7649016682365
 30
0.0
 11
844.7773714594504
 21
101.7649016682365
 31
0.0
  0
LINE
  5
5BCC
330
432D
100
AcDbEntity
  8
细实线
100
AcDbLine
 10
867.2576414594505
 20
101.9223816682455
 30
0.0
 11
844.7773714594504
 21
101.9223816682455
 31
0.0
  0
LINE
  5
5BCD
330
432D
100
AcDbEntity
  8
细实线
100
AcDbLine
 10
866.9820514594531
 20
102.5916716682362
 30
0.0
 11
845.0529614594481
 21
102.5916716682362
 31
0.0
  0
ARC
  5
5BCE
330
432D
100
AcDbEntity
  8
细实线
100
AcDbCircle
 10
866.9820514594531
 20
103.3003316682401
 30
0.0
 40
0.7086600000000001
100
AcDbArc
 50
270.0
 51
0.0
  0
LINE
  5
5BCF
330
432D
100
AcDbEntity
  8
细实线
100
AcDbLine
 10
866.9820514594531
 20
102.7294666682386
 30
0.0
 11
845.0529614594481
 21
102.7294666682386
 31
0.0
  0
ARC
  5
5BD0
330
432D
100
AcDbEntity
  8
细实线
100
AcDbCircle
 10
866.9820514594531
 20
103.3003316682401
 30
0.0
 40
0.5708650000000001
100
AcDbArc
 50
270.0
 51
0.0
  0
ARC
  5
5BD1
330
432D
100
AcDbEntity
  8
0
100
AcDbCircle
 10
867.2576414594505
 20
103.0247416682354
 30
0.0
 40
1.25984
100
AcDbArc
 50
270.0
 51
0.0
  0
ARC
  5
5BD2
330
432D
100
AcDbEntity
  8
细实线
100
AcDbCircle
 10
867.2576414594505
 20
103.0247416682354
 30
0.0
 40
1.10236
100
AcDbArc
 50
270.0
 51
0.0
  0
LINE
  5
5BD3
330
432D
100
AcDbEntity
  8
0
100
AcDbLine
 10
843.5175314594518
 20
103.0247416682354
 30
0.0
 11
843.5175314594518
 21
122.5522616682386
 31
0.0
  0
LINE
  5
5BD4
330
432D
100
AcDbEntity
  8
细实线
100
AcDbLine
 10
843.6750114594534
 20
103.0247416682354
 30
0.0
 11
843.6750114594534
 21
122.5522616682386
 31
0.0
  0
LINE
  5
5BD5
330
432D
100
AcDbEntity
  8
细实线
100
AcDbLine
 10
844.3443014594514
 20
103.3003316682401
 30
0.0
 11
844.3443014594514
 21
122.2766716682339
 31
0.0
  0
ARC
  5
5BD6
330
432D
100
AcDbEntity
  8
细实线
100
AcDbCircle
 10
845.0529614594481
 20
122.2766716682339
 30
0.0
 40
0.7086600000000001
100
AcDbArc
 50
90.0
 51
180.0
  0
ARC
  5
5BD7
330
432D
100
AcDbEntity
  8
细实线
100
AcDbCircle
 10
845.0529614594481
 20
103.3003316682401
 30
0.0
 40
0.7086600000000001
100
AcDbArc
 50
180.0
 51
270.0
  0
LINE
  5
5BD8
330
432D
100
AcDbEntity
  8
细实线
100
AcDbLine
 10
844.4820964594537
 20
103.3003316682401
 30
0.0
 11
844.4820964594537
 21
122.2766716682339
 31
0.0
  0
ARC
  5
5BD9
330
432D
100
AcDbEntity
  8
细实线
100
AcDbCircle
 10
845.0529614594481
 20
103.3003316682401
 30
0.0
 40
0.5708650000000001
100
AcDbArc
 50
180.0
 51
270.0
  0
ARC
  5
5BDA
330
432D
100
AcDbEntity
  8
0
100
AcDbCircle
 10
844.7773714594504
 20
103.0247416682354
 30
0.0
 40
1.25984
100
AcDbArc
 50
180.0
 51
270.0
  0
ARC
  5
5BDB
330
432D
100
AcDbEntity
  8
细实线
100
AcDbCircle
 10
844.7773714594504
 20
103.0247416682354
 30
0.0
 40
1.10236
100
AcDbArc
 50
180.0
 51
270.0
  0
ARC
  5
5BDC
330
432D
100
AcDbEntity
  8
0
100
AcDbCircle
 10
852.7379583870999
 20
114.6878110057981
 30
0.0
 40
7.086599999999998
100
AcDbArc
 50
106.1170992139022
 51
177.9956634505801
  0
LINE
  5
5BDD
330
432D
100
AcDbEntity
  8
0
100
AcDbLine
 10
845.3924253833749
 20
107.4129610221092
 30
0.0
 11
845.6556940914881
 21
114.9356658163409
 31
0.0
  0
ARC
  5
5BDE
330
432D
100
AcDbEntity
  8
0
100
AcDbCircle
 10
856.0175064594506
 20
103.3382639051373
 30
0.0
 40
18.9004755262203
100
AcDbArc
 50
73.88290078609774
 51
106.1170992139022
  0
ARC
  5
5BDF
330
432D
100
AcDbEntity
  8
0
100
AcDbCircle
 10
849.3270166587164
 20
107.2752639051281
 30
0.0
 40
3.936999999999999
100
AcDbArc
 50
177.9956634505801
 51
270.0
  0
ARC
  5
5BE0
330
432D
100
AcDbEntity
  8
0
100
AcDbCircle
 10
859.2970545318086
 20
114.6878110057981
 30
0.0
 40
7.086599999999998
100
AcDbArc
 50
2.004336549419809
 51
73.88290078609774
  0
LINE
  5
5BE1
330
432D
100
AcDbEntity
  8
0
100
AcDbLine
 10
849.3270166587164
 20
103.3382639051373
 30
0.0
 11
862.7079962601921
 21
103.3382639051373
 31
0.0
  0
LINE
  5
5BE2
330
432D
100
AcDbEntity
  8
0
100
AcDbLine
 10
866.6425875355264
 20
107.4129610221092
 30
0.0
 11
866.3793188274132
 21
114.9356658163409
 31
0.0
  0
ARC
  5
5BE3
330
432D
100
AcDbEntity
  8
0
100
AcDbCircle
 10
862.7079962601921
 20
107.2752639051281
 30
0.0
 40
3.936999999999999
100
AcDbArc
 50
270.0
 51
2.004336549419809
  0
CIRCLE
  5
5BE4
330
432D
100
AcDbEntity
  8
0
100
AcDbCircle
 10
856.0175064594506
 20
115.5458394313567
 30
0.0
 40
1.771649999999999
  0
CIRCLE
  5
5BE5
330
432D
100
AcDbEntity
  8
0
100
AcDbCircle
 10
856.0175064594506
 20
115.5458394313567
 30
0.0
 40
2.283459999999998
  0
CIRCLE
  5
5BE6
330
432D
100
AcDbEntity
  8
0
100
AcDbCircle
 10
856.0175064594506
 20
115.5458394313567
 30
0.0
 40
2.16535
  0
CIRCLE
  5
5BE9
330
432D
100
AcDbEntity
  8
0
100
AcDbCircle
 10
846.3521714594529
 20
120.9774616682365
 30
0.0
 40
0.6889750000000002
  0
CIRCLE
  5
5BEA
330
432D
100
AcDbEntity
  8
0
100
AcDbCircle
 10
865.6828414594484
 20
120.9774616682365
 30
0.0
 40
0.6889750000000003
  0
LINE
  5
5BEB
330
432D
100
AcDbEntity
  8
中心线
370
    13
100
AcDbLine
 10
864.7881853482752
 20
120.9774616682365
 30
0.0
 11
866.5774975706217
 21
120.9774616682365
 31
0.0
  0
LINE
  5
5BEC
330
432D
100
AcDbEntity
  8
中心线
370
    13
100
AcDbLine
 10
865.6828414594484
 20
120.1279953071165
 30
0.0
 11
865.6828414594484
 21
121.826928029371
 31
0.0
  0
LINE
  5
5BED
330
432D
100
AcDbEntity
  8
中心线
370
    13
100
AcDbLine
 10
845.4575153482792
 20
120.9774616682365
 30
0.0
 11
847.246827570626
 21
120.9774616682365
 31
0.0
  0
LINE
  5
5BEE
330
432D
100
AcDbEntity
  8
中心线
370
    13
100
AcDbLine
 10
846.3521714594529
 20
120.1279953071165
 30
0.0
 11
846.3521714594529
 21
121.826928029371
 31
0.0
  0
LWPOLYLINE
  5
5BEF
330
432D
100
AcDbEntity
  8
截面层
 62
     1
100
AcDbPolyline
 90
        8
 70
     1
 43
0.0
 10
867.2576414594505
 20
123.3396616682397
 10
844.7773714594504
 20
123.3396616682397
 42
0.4142135623730951
 10
843.9899714594496
 20
122.5522616682386
 10
843.9899714594496
 20
103.0247416682354
 42
0.4142135623730951
 10
844.7773714594504
 20
102.2373416682343
 10
867.2576414594505
 20
102.2373416682343
 42
0.4142135623730951
 10
868.0450414594517
 20
103.0247416682354
 10
868.0450414594517
 20
122.5522616682386
 42
0.4142135623730951
  0
INSERT
  5
5C8B
330
432D
100
AcDbEntity
  8
0
100
AcDbBlockReference
  2
A$C2558637D
 10
847.5465565550821
 20
97.79460509619434
 30
0.0
  0
INSERT
  5
5C8C
330
432D
100
AcDbEntity
  8
0
100
AcDbBlockReference
  2
*U19
 10
405.8463027198952
 20
-13.40871331590506
 30
0.0
  0
INSERT
  5
5C8D
330
432D
100
AcDbEntity
  8
0
100
AcDbBlockReference
  2
*U18
 10
404.2626225245165
 20
-10.44200152225642
 30
0.0
  0
LWPOLYLINE
  5
5C8E
330
432D
100
AcDbEntity
  8
截面层
 62
     1
100
AcDbPolyline
 90
        8
 70
     1
 43
0.0
 10
866.7635744024684
 20
67.6891977395187
 42
0.4142135623730951
 10
868.1021544024643
 20
69.0277777395147
 10
868.1021544024643
 20
87.84663773952866
 42
0.4142135623730951
 10
866.7635744024684
 20
89.18521773952463
 10
844.9132244024678
 20
89.18521773952463
 42
0.4142135623730951
 10
843.5746444024644
 20
87.84663773952866
 10
843.5746444024644
 20
69.02777773952926
 42
0.4142135623730951
 10
844.9132244024678
 20
67.6891977395187
  0
INSERT
  5
5C8F
330
432D
100
AcDbEntity
  8
0
100
AcDbBlockReference
  2
A$C2558637D
 10
848.7196782635722
 20
63.17616083690211
 30
0.0
  0
LINE
  5
5D52
330
432D
100
AcDbEntity
  8
0
100
AcDbLine
 10
845.2556404994783
 20
177.8960916069128
 30
0.0
 11
866.6342378230321
 21
177.8960916069148
 31
0.0
  0
LINE
  5
5D53
330
432D
100
AcDbEntity
  8
0
100
AcDbLine
 10
858.3047646911696
 20
169.1031462601284
 30
0.0
 11
853.5851320116059
 21
169.1031455256666
 31
0.0
  0
ENDSEC
  0
SECTION
  2
OBJECTS
  0
DICTIONARY
  5
42C3
330
0
100
AcDbDictionary
281
     1
  3
ACAD_2007HEADERVARS_RT
350
5DD0
  3
ACAD_COLOR
350
4324
  3
ACAD_GROUP
350
42C4
  3
ACAD_LAYOUT
350
4323
  3
ACAD_MATERIAL
350
42C7
  3
ACAD_MLEADERSTYLE
350
4327
  3
ACAD_MLINESTYLE
350
4320
  3
ACAD_PLOTSETTINGS
350
4322
  3
ACAD_PLOTSTYLENAME
350
42C5
  3
ACAD_SCALELIST
350
42F4
  3
ACAD_TABLESTYLE
350
4325
  3
ACAD_VISUALSTYLE
350
42E0
  3
ACDB_RECOMPOSE_DATA
350
5CC8
  3
AcDbVariableDictionary
350
49F2
  3
AcmDictionary
350
44C0
  3
AEC_PROPERTY_SET_DEFS
350
46F4
  3
AMG
350
4470
  3
AMGSNAPSETTINGS
350
44E9
  3
DWGPROPS
350
5DCF
  3
lxx_dict
350
44E4
  0
DICTIONARY
  5
46A5
330
42B9
100
AcDbDictionary
280
     1
281
     1
  3
ACAD_LAYERSTATES
360
46A6
  0
DICTIONARY
  5
44F0
330
4316
100
AcDbDictionary
280
     1
281
     1
  3
ADSK_XREC_LAYER_RECONCILED
360
44F1
  0
DICTIONARY
  5
44F2
330
4341
100
AcDbDictionary
280
     1
281
     1
  3
ADSK_XREC_LAYER_RECONCILED
360
44F3
  0
DICTIONARY
  5
44F4
330
4342
100
AcDbDictionary
280
     1
281
     1
  3
ADSK_XREC_LAYER_RECONCILED
360
44F5
  0
DICTIONARY
  5
44F6
330
4344
100
AcDbDictionary
280
     1
281
     1
  3
ADSK_XREC_LAYER_RECONCILED
360
44F7
  0
DICTIONARY
  5
44F8
330
4345
100
AcDbDictionary
280
     1
281
     1
  3
ADSK_XREC_LAYER_RECONCILED
360
44F9
  0
DICTIONARY
  5
44FA
330
4347
100
AcDbDictionary
280
     1
281
     1
  3
ADSK_XREC_LAYER_RECONCILED
360
44FB
  0
DICTIONARY
  5
536A
330
5369
100
AcDbDictionary
280
     1
281
     1
  0
DICTIONARY
  5
506A
330
432D
100
AcDbDictionary
280
     1
281
     1
  3
ACAD_SORTENTS
360
506B
  0
DICTIONARY
  5
5522
330
551F
100
AcDbDictionary
280
     1
281
     1
  3
ACAD_SORTENTS
360
5523
  0
DICTIONARY
  5
5B8D
330
5B8C
100
AcDbDictionary
280
     1
281
     1
  3
ACAD_DIMASSOC
360
5B8E
  0
DICTIONARY
  5
5B90
330
5B8F
100
AcDbDictionary
280
     1
281
     1
  3
ACAD_DIMASSOC
360
5B91
  0
DICTIONARY
  5
5B93
330
5B92
100
AcDbDictionary
280
     1
281
     1
  3
ACAD_DIMASSOC
360
5B94
  0
DICTIONARY
  5
5B96
330
5B95
100
AcDbDictionary
280
     1
281
     1
  3
ACAD_DIMASSOC
360
5B97
  0
DICTIONARY
  5
5B99
330
5B98
100
AcDbDictionary
280
     1
281
     1
  3
ACAD_DIMASSOC
360
5B9A
  0
DICTIONARY
  5
5DD0
102
{ACAD_REACTORS
330
42C3
102
}
330
42C3
100
AcDbDictionary
281
     1
  3
DIMARCSYM
350
5DD2
  3
DIMFXL
350
5DD1
  3
DIMJOGANG
350
5DD3
  3
DIMLTEX1
350
5DD5
  3
DIMLTEX2
350
5DD6
  3
DIMLTYPE
350
5DD4
  0
DICTIONARY
  5
4324
102
{ACAD_REACTORS
330
42C3
102
}
330
42C3
100
AcDbDictionary
281
     1
  0
DICTIONARY
  5
42C4
102
{ACAD_REACTORS
330
42C3
102
}
330
42C3
100
AcDbDictionary
281
     1
  0
DICTIONARY
  5
4323
102
{ACAD_REACTORS
330
42C3
102
}
330
42C3
100
AcDbDictionary
281
     1
  3
Model
350
4330
  3
布局1
350
432C
  0
DICTIONARY
  5
42C7
102
{ACAD_REACTORS
330
42C3
102
}
330
42C3
100
AcDbDictionary
281
     1
  3
ByBlock
350
42D0
  3
ByLayer
350
42C8
  3
Global
350
42D8
  0
DICTIONARY
  5
4327
102
{ACAD_REACTORS
330
42C3
102
}
330
42C3
100
AcDbDictionary
281
     1
  3
Standard
350
4328
  0
DICTIONARY
  5
4320
102
{ACAD_REACTORS
330
42C3
102
}
330
42C3
100
AcDbDictionary
281
     1
  3
Standard
350
4321
  0
DICTIONARY
  5
4322
102
{ACAD_REACTORS
330
42C3
102
}
330
42C3
100
AcDbDictionary
281
     1
  0
ACDBDICTIONARYWDFLT
  5
42C5
102
{ACAD_REACTORS
330
42C3
102
}
330
42C3
100
AcDbDictionary
281
     1
  3
Normal
350
42C6
100
AcDbDictionaryWithDefault
340
42C6
  0
DICTIONARY
  5
42F4
102
{ACAD_REACTORS
330
42C3
102
}
330
42C3
100
AcDbDictionary
281
     1
  3
A0
350
42F5
  3
A1
350
42F6
  3
A2
350
42F7
  3
A3
350
42F8
  3
A4
350
42F9
  3
A5
350
42FA
  3
A6
350
42FB
  3
A7
350
42FC
  3
A8
350
42FD
  3
A9
350
42FE
  3
B0
350
42FF
  3
B1
350
4300
  3
B2
350
4301
  3
B3
350
4302
  3
B4
350
4303
  3
B5
350
4304
  3
B6
350
4305
  3
B7
350
4306
  3
B8
350
4307
  3
B9
350
4308
  3
C0
350
4309
  3
C1
350
430A
  3
C2
350
430B
  3
C3
350
430C
  3
C4
350
430D
  3
C5
350
430E
  3
C6
350
430F
  3
C7
350
4310
  3
C8
350
4311
  3
C9
350
4312
  3
D0
350
4313
  3
D1
350
4314
  3
D2
350
4315
  0
DICTIONARY
  5
4325
102
{ACAD_REACTORS
330
42C3
102
}
330
42C3
100
AcDbDictionary
281
     1
  3
Standard
350
4326
  0
DICTIONARY
  5
42E0
102
{ACAD_REACTORS
330
42C3
102
}
330
42C3
100
AcDbDictionary
281
     1
  3
2dWireframe
350
42E6
  3
3D Hidden
350
42E8
  3
3dWireframe
350
42E7
  3
Basic
350
42E5
  3
Brighten
350
42EC
  3
ColorChange
350
42F0
  3
Conceptual
350
42E9
  3
Dim
350
42EB
  3
EdgeColorOff
350
42F3
  3
Facepattern
350
42EF
  3
Flat
350
42E1
  3
FlatWithEdges
350
42E2
  3
Gouraud
350
42E3
  3
GouraudWithEdges
350
42E4
  3
JitterOff
350
42F1
  3
Linepattern
350
42EE
  3
OverhangOff
350
42F2
  3
Realistic
350
42EA
  3
Thicken
350
42ED
  0
XRECORD
  5
5CC8
102
{ACAD_REACTORS
330
42C3
102
}
330
42C3
100
AcDbXrecord
280
     1
 90
        1
330
4326
  0
DICTIONARY
  5
49F2
102
{ACAD_REACTORS
330
42C3
102
}
330
42C3
100
AcDbDictionary
281
     1
  3
CANNOSCALE
350
49F5
  3
CMLEADERSTYLE
350
49F4
  3
CTABLESTYLE
350
49F3
  3
DIMASSOC
350
49F8
  3
INDEXCTL
350
49F7
  3
SORTENTS
350
49F6
  3
XCLIPFRAME
350
5CC6
  0
DICTIONARY
  5
44C0
102
{ACAD_REACTORS
330
42C3
102
}
330
42C3
100
AcDbDictionary
281
     1
  3
AcmStdDictionary
350
44CA
  0
DICTIONARY
  5
46F4
102
{ACAD_REACTORS
330
42C3
102
}
330
42C3
100
AcDbDictionary
281
     1
  0
DICTIONARY
  5
4470
102
{ACAD_REACTORS
330
42C3
102
}
330
42C3
100
AcDbDictionary
281
     1
  0
DICTIONARY
  5
44E9
102
{ACAD_REACTORS
330
42C3
102
}
330
42C3
100
AcDbDictionary
281
     1
  0
XRECORD
  5
5DCF
102
{ACAD_REACTORS
330
42C3
102
}
330
42C3
100
AcDbXrecord
280
     1
  1
DWGPROPS COOKIE
  2

  3

  4

  6

  7

  8
Administrator
  9

300
=
301
=
302
=
303
=
304
=
305
=
306
=
307
=
308
=
309
=
 40
0.2306138773148148
 41
2455434.724808658
 42
2458648.720920058
  1

 90
        0
  0
DICTIONARY
  5
44E4
102
{ACAD_REACTORS
330
42C3
102
}
330
42C3
100
AcDbDictionary
281
     1
  3
lxx_dimth
350
44E5
  0
DICTIONARY
  5
46A6
102
{ACAD_REACTORS
330
46A5
102
}
330
46A5
100
AcDbDictionary
281
     1
  0
XRECORD
  5
44F1
102
{ACAD_REACTORS
330
44F0
102
}
330
44F0
100
AcDbXrecord
280
     1
290
     1
  0
XRECORD
  5
44F3
102
{ACAD_REACTORS
330
44F2
102
}
330
44F2
100
AcDbXrecord
280
     1
290
     1
  0
XRECORD
  5
44F5
102
{ACAD_REACTORS
330
44F4
102
}
330
44F4
100
AcDbXrecord
280
     1
290
     1
  0
XRECORD
  5
44F7
102
{ACAD_REACTORS
330
44F6
102
}
330
44F6
100
AcDbXrecord
280
     1
290
     1
  0
XRECORD
  5
44F9
102
{ACAD_REACTORS
330
44F8
102
}
330
44F8
100
AcDbXrecord
280
     1
290
     1
  0
XRECORD
  5
44FB
102
{ACAD_REACTORS
330
44FA
102
}
330
44FA
100
AcDbXrecord
280
     1
290
     1
  0
SORTENTSTABLE
  5
506B
102
{ACAD_REACTORS
330
506A
102
}
330
506A
100
AcDbSortentsTable
330
432D
  0
SORTENTSTABLE
  5
5523
102
{ACAD_REACTORS
330
5522
102
}
330
5522
100
AcDbSortentsTable
330
551F
  0
DIMASSOC
  5
5B8E
102
{ACAD_REACTORS
330
5B8D
102
}
330
5B8D
100
AcDbDimAssoc
330
5B8C
 90
        3
 70
     0
 71
     0
  1
AcDbOsnapPointRef
 72
    13
331
5B4A
 73
     2
 91
        0
 40
3.141592653589792
 10
0.0
 20
0.0
 30
2.000000000000000E+50
 75
     0
  1
AcDbOsnapPointRef
 72
     1
331
5B41
 73
     2
 91
        0
 40
6.283185307179584
 10
0.0
 20
0.0
 30
2.000000000000000E+50
 75
     0
  0
DIMASSOC
  5
5B91
102
{ACAD_REACTORS
330
5B90
102
}
330
5B90
100
AcDbDimAssoc
330
5B8F
 90
        3
 70
     0
 71
     0
  1
AcDbOsnapPointRef
 72
     6
331
5B69
 73
     2
 91
        0
 40
0.0
 10
0.0
 20
0.0
 30
0.0
332
5B6B
 74
     2
 92
        0
 75
     0
  1
AcDbOsnapPointRef
 72
    13
331
5B6E
 73
     2
 91
        0
 40
0.0
 10
0.0
 20
0.0
 30
2.000000000000000E+50
 75
     0
  0
DIMASSOC
  5
5B94
102
{ACAD_REACTORS
330
5B93
102
}
330
5B93
100
AcDbDimAssoc
330
5B92
 90
        3
 70
     0
 71
     0
  1
AcDbOsnapPointRef
 72
    13
331
5B6F
 73
     2
 91
        0
 40
4.712388980384688
 10
0.0
 20
0.0
 30
2.000000000000000E+50
 75
     0
  1
AcDbOsnapPointRef
 72
     2
331
5B6A
 73
     2
 91
        0
 40
1.570796326794896
 10
0.0
 20
0.0
 30
0.0
 75
     0
  0
DIMASSOC
  5
5B97
102
{ACAD_REACTORS
330
5B96
102
}
330
5B96
100
AcDbDimAssoc
330
5B95
 90
        3
 70
     0
 71
     0
  1
AcDbOsnapPointRef
 72
     1
331
5B39
 73
     2
 91
        0
 40
1.570796326794896
 10
0.0
 20
0.0
 30
2.000000000000000E+50
 75
     0
  1
AcDbOsnapPointRef
 72
    13
331
5B41
 73
     2
 91
        0
 40
4.712388980384688
 10
0.0
 20
0.0
 30
2.000000000000000E+50
 75
     0
  0
DIMASSOC
  5
5B9A
102
{ACAD_REACTORS
330
5B99
102
}
330
5B99
100
AcDbDimAssoc
330
5B98
 90
        2
 70
     0
 71
     0
  1
AcDbOsnapPointRef
 72
     1
331
5B64
 73
     2
 91
        0
 40
1.0
 10
0.0
 20
0.0
 30
2.000000000000000E+50
 75
     0
  0
XRECORD
  5
5DD2
102
{ACAD_REACTORS
330
5DD0
102
}
330
5DD0
100
AcDbXrecord
280
     1
 70
     1
  0
XRECORD
  5
5DD1
102
{ACAD_REACTORS
330
5DD0
102
}
330
5DD0
100
AcDbXrecord
280
     1
 40
8.0
  0
XRECORD
  5
5DD3
102
{ACAD_REACTORS
330
5DD0
102
}
330
5DD0
100
AcDbXrecord
280
     1
 40
1.570796326794896
  0
XRECORD
  5
5DD5
102
{ACAD_REACTORS
330
5DD0
102
}
330
5DD0
100
AcDbXrecord
280
     1
340
431E
  0
XRECORD
  5
5DD6
102
{ACAD_REACTORS
330
5DD0
102
}
330
5DD0
100
AcDbXrecord
280
     1
340
431E
  0
XRECORD
  5
5DD4
102
{ACAD_REACTORS
330
5DD0
102
}
330
5DD0
100
AcDbXrecord
280
     1
340
431E
  0
LAYOUT
  5
4330
102
{ACAD_XDICTIONARY
360
5DDA
102
}
102
{ACAD_REACTORS
330
4323
102
}
330
4323
100
AcDbPlotSettings
  1

  2
Microsoft Office Document Image Writer
  4

  6

 40
0.0
 41
0.0
 42
0.0
 43
0.0
 44
0.0
 45
0.0
 46
0.0
 47
0.0
 48
0.0
 49
0.0
140
0.0
141
0.0
142
1.0
143
1.0
 70
  1712
 72
     0
 73
     0
 74
     0
  7
yanxiu.ctb
 75
     0
147
1.0
148
0.0
149
0.0
100
AcDbLayout
  1
Model
 70
     1
 71
     0
 10
0.0
 20
0.0
 11
12.0
 21
9.0
 12
0.0
 22
0.0
 32
0.0
 14
0.0
 24
0.0
 34
0.0
 15
0.0
 25
0.0
 35
0.0
146
0.0
 13
0.0
 23
0.0
 33
0.0
 16
1.0
 26
0.0
 36
0.0
 17
0.0
 27
1.0
 37
0.0
 76
     0
330
432D
331
4331
  0
LAYOUT
  5
432C
102
{ACAD_XDICTIONARY
360
5DD8
102
}
102
{ACAD_REACTORS
330
4323
102
}
330
4323
100
AcDbPlotSettings
  1

  2
Microsoft Office Document Image Writer
  4

  6

 40
0.0
 41
0.0
 42
0.0
 43
0.0
 44
0.0
 45
0.0
 46
0.0
 47
0.0
 48
0.0
 49
0.0
140
0.0
141
0.0
142
1.0
143
1.0
 70
   688
 72
     0
 73
     0
 74
     5
  7
yanxiu.ctb
 75
    16
147
1.0
148
0.0
149
0.0
100
AcDbLayout
  1
布局1
 70
     1
 71
     1
 10
0.0
 20
0.0
 11
12.0
 21
9.0
 12
0.0
 22
0.0
 32
0.0
 14
1.000000000000000E+20
 24
1.000000000000000E+20
 34
1.000000000000000E+20
 15
-1.000000000000000E+20
 25
-1.000000000000000E+20
 35
-1.000000000000000E+20
146
0.0
 13
0.0
 23
0.0
 33
0.0
 16
1.0
 26
0.0
 36
0.0
 17
0.0
 27
1.0
 37
0.0
 76
     0
330
4329
  0
MATERIAL
  5
42D0
102
{ACAD_XDICTIONARY
360
42D1
102
}
102
{ACAD_REACTORS
330
42C7
102
}
330
42C7
100
AcDbMaterial
  1
ByBlock
 72
     0
 43
0.0208333333333333
 43
0.0
 43
0.0
 43
0.0
 43
0.0
 43
0.0208333333333333
 43
0.0
 43
0.0
 43
0.0
 43
0.0
 43
1.0
 43
0.0
 43
0.0
 43
0.0
 43
0.0
 43
1.0
 77
     0
 47
0.0208333333333333
 47
0.0
 47
0.0
 47
0.0
 47
0.0
 47
0.0208333333333333
 47
0.0
 47
0.0
 47
0.0
 47
0.0
 47
1.0
 47
0.0
 47
0.0
 47
0.0
 47
0.0
 47
1.0
171
     0
 49
0.0208333333333333
 49
0.0
 49
0.0
 49
0.0
 49
0.0
 49
0.0208333333333333
 49
0.0
 49
0.0
 49
0.0
 49
0.0
 49
1.0
 49
0.0
 49
0.0
 49
0.0
 49
0.0
 49
1.0
175
     0
142
0.0208333333333333
142
0.0
142
0.0
142
0.0
142
0.0
142
0.0208333333333333
142
0.0
142
0.0
142
0.0
142
0.0
142
1.0
142
0.0
142
0.0
142
0.0
142
0.0
142
1.0
179
     0
144
0.0208333333333333
144
0.0
144
0.0
144
0.0
144
0.0
144
0.0208333333333333
144
0.0
144
0.0
144
0.0
144
0.0
144
1.0
144
0.0
144
0.0
144
0.0
144
0.0
144
1.0
147
0.0208333333333333
147
0.0
147
0.0
147
0.0
147
0.0
147
0.0208333333333333
147
0.0
147
0.0
147
0.0
147
0.0
147
1.0
147
0.0
147
0.0
147
0.0
147
0.0
147
1.0
  0
MATERIAL
  5
42C8
102
{ACAD_XDICTIONARY
360
42C9
102
}
102
{ACAD_REACTORS
330
42C7
102
}
330
42C7
100
AcDbMaterial
  1
ByLayer
 72
     0
 43
0.0208333333333333
 43
0.0
 43
0.0
 43
0.0
 43
0.0
 43
0.0208333333333333
 43
0.0
 43
0.0
 43
0.0
 43
0.0
 43
1.0
 43
0.0
 43
0.0
 43
0.0
 43
0.0
 43
1.0
 77
     0
 47
0.0208333333333333
 47
0.0
 47
0.0
 47
0.0
 47
0.0
 47
0.0208333333333333
 47
0.0
 47
0.0
 47
0.0
 47
0.0
 47
1.0
 47
0.0
 47
0.0
 47
0.0
 47
0.0
 47
1.0
171
     0
 49
0.0208333333333333
 49
0.0
 49
0.0
 49
0.0
 49
0.0
 49
0.0208333333333333
 49
0.0
 49
0.0
 49
0.0
 49
0.0
 49
1.0
 49
0.0
 49
0.0
 49
0.0
 49
0.0
 49
1.0
175
     0
142
0.0208333333333333
142
0.0
142
0.0
142
0.0
142
0.0
142
0.0208333333333333
142
0.0
142
0.0
142
0.0
142
0.0
142
1.0
142
0.0
142
0.0
142
0.0
142
0.0
142
1.0
179
     0
144
0.0208333333333333
144
0.0
144
0.0
144
0.0
144
0.0
144
0.0208333333333333
144
0.0
144
0.0
144
0.0
144
0.0
144
1.0
144
0.0
144
0.0
144
0.0
144
0.0
144
1.0
147
0.0208333333333333
147
0.0
147
0.0
147
0.0
147
0.0
147
0.0208333333333333
147
0.0
147
0.0
147
0.0
147
0.0
147
1.0
147
0.0
147
0.0
147
0.0
147
0.0
147
1.0
  0
MATERIAL
  5
42D8
102
{ACAD_XDICTIONARY
360
42D9
102
}
102
{ACAD_REACTORS
330
42C7
102
}
330
42C7
100
AcDbMaterial
  1
Global
 72
     0
 43
0.0208333333333333
 43
0.0
 43
0.0
 43
0.0
 43
0.0
 43
0.0208333333333333
 43
0.0
 43
0.0
 43
0.0
 43
0.0
 43
1.0
 43
0.0
 43
0.0
 43
0.0
 43
0.0
 43
1.0
 77
     0
 47
0.0208333333333333
 47
0.0
 47
0.0
 47
0.0
 47
0.0
 47
0.0208333333333333
 47
0.0
 47
0.0
 47
0.0
 47
0.0
 47
1.0
 47
0.0
 47
0.0
 47
0.0
 47
0.0
 47
1.0
171
     0
 49
0.0208333333333333
 49
0.0
 49
0.0
 49
0.0
 49
0.0
 49
0.0208333333333333
 49
0.0
 49
0.0
 49
0.0
 49
0.0
 49
1.0
 49
0.0
 49
0.0
 49
0.0
 49
0.0
 49
1.0
175
     0
142
0.0208333333333333
142
0.0
142
0.0
142
0.0
142
0.0
142
0.0208333333333333
142
0.0
142
0.0
142
0.0
142
0.0
142
1.0
142
0.0
142
0.0
142
0.0
142
0.0
142
1.0
179
     0
144
0.0208333333333333
144
0.0
144
0.0
144
0.0
144
0.0
144
0.0208333333333333
144
0.0
144
0.0
144
0.0
144
0.0
144
1.0
144
0.0
144
0.0
144
0.0
144
0.0
144
1.0
147
0.0208333333333333
147
0.0
147
0.0
147
0.0
147
0.0
147
0.0208333333333333
147
0.0
147
0.0
147
0.0
147
0.0
147
1.0
147
0.0
147
0.0
147
0.0
147
0.0
147
1.0
  0
MLEADERSTYLE
  5
4328
102
{ACAD_REACTORS
330
4327
102
}
330
4327
100
AcDbMLeaderStyle
170
     2
171
     1
172
     0
 90
        2
 40
0.0
 41
0.0
173
     1
 91
-1056964608
340
431C
 92
       -2
290
     1
 42
0.09
291
     1
 43
0.36
  3
Standard
 44
0.18
300

342
4317
174
     1
178
     6
175
     1
176
     0
 93
-1056964608
 45
0.18
292
     0
297
     0
 46
0.18
 94
-1056964608
 47
1.0
 49
1.0
140
1.0
293
     1
141
0.0
294
     1
177
     0
142
1.0
295
     0
296
     0
143
0.125
1001
ACAD_MLEADERVER
1070
     2
  0
MLINESTYLE
  5
4321
102
{ACAD_REACTORS
330
4320
102
}
330
4320
100
AcDbMlineStyle
  2
STANDARD
 70
     0
  3

 62
   256
 51
90.0
 52
90.0
 71
     2
 49
0.5
 62
   256
  6
BYLAYER
 49
-0.5
 62
   256
  6
BYLAYER
  0
ACDBPLACEHOLDER
  5
42C6
102
{ACAD_REACTORS
330
42C5
102
}
330
42C5
  0
SCALE
  5
42F5
102
{ACAD_REACTORS
330
42F4
102
}
330
42F4
100
AcDbScale
 70
     0
300
1:1
140
1.0
141
1.0
290
     1
  0
SCALE
  5
42F6
102
{ACAD_REACTORS
330
42F4
102
}
330
42F4
100
AcDbScale
 70
     0
300
1:2
140
1.0
141
2.0
290
     0
  0
SCALE
  5
42F7
102
{ACAD_REACTORS
330
42F4
102
}
330
42F4
100
AcDbScale
 70
     0
300
1:4
140
1.0
141
4.0
290
     0
  0
SCALE
  5
42F8
102
{ACAD_REACTORS
330
42F4
102
}
330
42F4
100
AcDbScale
 70
     0
300
1:5
140
1.0
141
5.0
290
     0
  0
SCALE
  5
42F9
102
{ACAD_REACTORS
330
42F4
102
}
330
42F4
100
AcDbScale
 70
     0
300
1:8
140
1.0
141
8.0
290
     0
  0
SCALE
  5
42FA
102
{ACAD_REACTORS
330
42F4
102
}
330
42F4
100
AcDbScale
 70
     0
300
1:10
140
1.0
141
10.0
290
     0
  0
SCALE
  5
42FB
102
{ACAD_REACTORS
330
42F4
102
}
330
42F4
100
AcDbScale
 70
     0
300
1:16
140
1.0
141
16.0
290
     0
  0
SCALE
  5
42FC
102
{ACAD_REACTORS
330
42F4
102
}
330
42F4
100
AcDbScale
 70
     0
300
1:20
140
1.0
141
20.0
290
     0
  0
SCALE
  5
42FD
102
{ACAD_REACTORS
330
42F4
102
}
330
42F4
100
AcDbScale
 70
     0
300
1:30
140
1.0
141
30.0
290
     0
  0
SCALE
  5
42FE
102
{ACAD_REACTORS
330
42F4
102
}
330
42F4
100
AcDbScale
 70
     0
300
1:40
140
1.0
141
40.0
290
     0
  0
SCALE
  5
42FF
102
{ACAD_REACTORS
330
42F4
102
}
330
42F4
100
AcDbScale
 70
     0
300
1:50
140
1.0
141
50.0
290
     0
  0
SCALE
  5
4300
102
{ACAD_REACTORS
330
42F4
102
}
330
42F4
100
AcDbScale
 70
     0
300
1:100
140
1.0
141
100.0
290
     0
  0
SCALE
  5
4301
102
{ACAD_REACTORS
330
42F4
102
}
330
42F4
100
AcDbScale
 70
     0
300
2:1
140
2.0
141
1.0
290
     0
  0
SCALE
  5
4302
102
{ACAD_REACTORS
330
42F4
102
}
330
42F4
100
AcDbScale
 70
     0
300
4:1
140
4.0
141
1.0
290
     0
  0
SCALE
  5
4303
102
{ACAD_REACTORS
330
42F4
102
}
330
42F4
100
AcDbScale
 70
     0
300
8:1
140
8.0
141
1.0
290
     0
  0
SCALE
  5
4304
102
{ACAD_REACTORS
330
42F4
102
}
330
42F4
100
AcDbScale
 70
     0
300
10:1
140
10.0
141
1.0
290
     0
  0
SCALE
  5
4305
102
{ACAD_REACTORS
330
42F4
102
}
330
42F4
100
AcDbScale
 70
     0
300
100:1
140
100.0
141
1.0
290
     0
  0
SCALE
  5
4306
102
{ACAD_REACTORS
330
42F4
102
}
330
42F4
100
AcDbScale
 70
     0
300
1/128" = 1'-0"
140
0.0078125
141
12.0
290
     0
  0
SCALE
  5
4307
102
{ACAD_REACTORS
330
42F4
102
}
330
42F4
100
AcDbScale
 70
     0
300
1/64" = 1'-0"
140
0.015625
141
12.0
290
     0
  0
SCALE
  5
4308
102
{ACAD_REACTORS
330
42F4
102
}
330
42F4
100
AcDbScale
 70
     0
300
1/32" = 1'-0"
140
0.03125
141
12.0
290
     0
  0
SCALE
  5
4309
102
{ACAD_REACTORS
330
42F4
102
}
330
42F4
100
AcDbScale
 70
     0
300
1/16" = 1'-0"
140
0.0625
141
12.0
290
     0
  0
SCALE
  5
430A
102
{ACAD_REACTORS
330
42F4
102
}
330
42F4
100
AcDbScale
 70
     0
300
3/32" = 1'-0"
140
0.09375
141
12.0
290
     0
  0
SCALE
  5
430B
102
{ACAD_REACTORS
330
42F4
102
}
330
42F4
100
AcDbScale
 70
     0
300
1/8" = 1'-0"
140
0.125
141
12.0
290
     0
  0
SCALE
  5
430C
102
{ACAD_REACTORS
330
42F4
102
}
330
42F4
100
AcDbScale
 70
     0
300
3/16" = 1'-0"
140
0.1875
141
12.0
290
     0
  0
SCALE
  5
430D
102
{ACAD_REACTORS
330
42F4
102
}
330
42F4
100
AcDbScale
 70
     0
300
1/4" = 1'-0"
140
0.25
141
12.0
290
     0
  0
SCALE
  5
430E
102
{ACAD_REACTORS
330
42F4
102
}
330
42F4
100
AcDbScale
 70
     0
300
3/8" = 1'-0"
140
0.375
141
12.0
290
     0
  0
SCALE
  5
430F
102
{ACAD_REACTORS
330
42F4
102
}
330
42F4
100
AcDbScale
 70
     0
300
1/2" = 1'-0"
140
0.5
141
12.0
290
     0
  0
SCALE
  5
4310
102
{ACAD_REACTORS
330
42F4
102
}
330
42F4
100
AcDbScale
 70
     0
300
3/4" = 1'-0"
140
0.75
141
12.0
290
     0
  0
SCALE
  5
4311
102
{ACAD_REACTORS
330
42F4
102
}
330
42F4
100
AcDbScale
 70
     0
300
1" = 1'-0"
140
1.0
141
12.0
290
     0
  0
SCALE
  5
4312
102
{ACAD_REACTORS
330
42F4
102
}
330
42F4
100
AcDbScale
 70
     0
300
1-1/2" = 1'-0"
140
1.5
141
12.0
290
     0
  0
SCALE
  5
4313
102
{ACAD_REACTORS
330
42F4
102
}
330
42F4
100
AcDbScale
 70
     0
300
3" = 1'-0"
140
3.0
141
12.0
290
     0
  0
SCALE
  5
4314
102
{ACAD_REACTORS
330
42F4
102
}
330
42F4
100
AcDbScale
 70
     0
300
6" = 1'-0"
140
6.0
141
12.0
290
     0
  0
SCALE
  5
4315
102
{ACAD_REACTORS
330
42F4
102
}
330
42F4
100
AcDbScale
 70
     0
300
1'-0" = 1'-0"
140
12.0
141
12.0
290
     0
  0
TABLESTYLE
  5
4326
102
{ACAD_XDICTIONARY
360
49FA
102
}
102
{ACAD_REACTORS
330
4325
102
}
330
4325
100
AcDbTableStyle
  3
Standard
 70
     0
 71
     0
 40
0.06
 41
0.06
280
     0
281
     0
  7
STANDARD
140
0.18
170
     2
 62
     0
 63
     7
283
     0
274
    -2
284
     1
 64
     0
275
    -2
285
     1
 65
     0
276
    -2
286
     1
 66
     0
277
    -2
287
     1
 67
     0
278
    -2
288
     1
 68
     0
279
    -2
289
     1
 69
     0
  7
STANDARD
140
0.25
170
     5
 62
     0
 63
     7
283
     0
274
    -2
284
     1
 64
     0
275
    -2
285
     1
 65
     0
276
    -2
286
     1
 66
     0
277
    -2
287
     1
 67
     0
278
    -2
288
     1
 68
     0
279
    -2
289
     1
 69
     0
  7
STANDARD
140
0.18
170
     5
 62
     0
 63
     7
283
     0
274
    -2
284
     1
 64
     0
275
    -2
285
     1
 65
     0
276
    -2
286
     1
 66
     0
277
    -2
287
     1
 67
     0
278
    -2
288
     1
 68
     0
279
    -2
289
     1
 69
     0
  0
VISUALSTYLE
  5
42E6
102
{ACAD_XDICTIONARY
360
5CDB
102
}
102
{ACAD_REACTORS
330
42E0
102
}
330
42E0
100
AcDbVisualStyle
  2

 70
     4
 71
     0
 72
     2
 73
     0
 90
        0
 40
-0.6
 41
-30.0
 62
     5
 63
     7
 74
     1
 91
        4
 64
     7
 65
   257
 75
     1
175
     1
 42
1.0
 92
        0
 66
   257
 43
1.0
 76
     1
 77
     6
 78
     2
 67
     7
 79
     5
170
     0
171
     0
290
     0
174
     0
 93
        1
 44
0.0
173
     0
291
     0
 45
0.0
1001
ACAD
1000
AcDbSavedByObjectVersion
1070
     0
1000
AcDbSavedByObjectVersion
1070
     0
1000
AcDbSavedByObjectVersion
1070
     0
  0
VISUALSTYLE
  5
42E8
102
{ACAD_XDICTIONARY
360
5CDF
102
}
102
{ACAD_REACTORS
330
42E0
102
}
330
42E0
100
AcDbVisualStyle
  2

 70
     6
 71
     1
 72
     2
 73
     2
 90
        0
 40
-0.6
 41
-30.0
 62
     5
 63
     7
 74
     2
 91
        2
 64
     7
 65
   257
 75
     2
175
     1
 42
179.0
 92
        0
 66
   257
 43
1.0
 76
     1
 77
     6
 78
     2
 67
     7
 79
     3
170
     0
171
     0
290
     0
174
     0
 93
        1
 44
0.0
173
     0
291
     0
 45
0.0
1001
ACAD
1000
AcDbSavedByObjectVersion
1070
     0
1000
AcDbSavedByObjectVersion
1070
     0
1000
AcDbSavedByObjectVersion
1070
     0
  0
VISUALSTYLE
  5
42E7
102
{ACAD_XDICTIONARY
360
5CDD
102
}
102
{ACAD_REACTORS
330
42E0
102
}
330
42E0
100
AcDbVisualStyle
  2

 70
     5
 71
     0
 72
     2
 73
     0
 90
        0
 40
-0.6
 41
-30.0
 62
     5
 63
     7
 74
     1
 91
        4
 64
     7
 65
   257
 75
     1
175
     1
 42
1.0
 92
        0
 66
   257
 43
1.0
 76
     1
 77
     6
 78
     2
 67
     7
 79
     5
170
     0
171
     0
290
     0
174
     0
 93
        1
 44
0.0
173
     0
291
     0
 45
0.0
1001
ACAD
1000
AcDbSavedByObjectVersion
1070
     0
1000
AcDbSavedByObjectVersion
1070
     0
1000
AcDbSavedByObjectVersion
1070
     0
  0
VISUALSTYLE
  5
42E5
102
{ACAD_XDICTIONARY
360
5CD9
102
}
102
{ACAD_REACTORS
330
42E0
102
}
330
42E0
100
AcDbVisualStyle
  2

 70
     7
 71
     1
 72
     0
 73
     1
 90
        0
 40
-0.6
 41
-30.0
 62
     5
 63
     7
 74
     0
 91
        4
 64
     7
 65
   257
 75
     1
175
     1
 42
1.0
 92
        8
 66
     7
 43
1.0
 76
     1
 77
     6
 78
     2
 67
     7
 79
     5
170
     0
171
     0
290
     0
174
     0
 93
        1
 44
0.0
173
     0
291
     1
 45
0.0
1001
ACAD
1000
AcDbSavedByObjectVersion
1070
     0
1000
AcDbSavedByObjectVersion
1070
     0
1000
AcDbSavedByObjectVersion
1070
     0
  0
VISUALSTYLE
  5
42EC
102
{ACAD_XDICTIONARY
360
5CE7
102
}
102
{ACAD_REACTORS
330
42E0
102
}
330
42E0
100
AcDbVisualStyle
  2

 70
    12
 71
     2
 72
     2
 73
     0
 90
        0
 40
-0.6
 41
-30.0
 62
     5
 63
     7
 74
     1
 91
        4
 64
     7
 65
   257
 75
     1
175
     1
 42
1.0
 92
        8
 66
     7
 43
1.0
 76
     1
 77
     6
 78
     2
 67
     7
 79
     5
170
     0
171
     0
290
     0
174
     0
 93
        1
 44
50.0
173
     0
291
     1
 45
0.0
1001
ACAD
1000
AcDbSavedByObjectVersion
1070
     0
1000
AcDbSavedByObjectVersion
1070
     0
1000
AcDbSavedByObjectVersion
1070
     0
  0
VISUALSTYLE
  5
42F0
102
{ACAD_XDICTIONARY
360
5CEF
102
}
102
{ACAD_REACTORS
330
42E0
102
}
330
42E0
100
AcDbVisualStyle
  2

 70
    16
 71
     2
 72
     2
 73
     3
 90
        0
 40
-0.6
 41
-30.0
 62
     5
 63
     8
 74
     1
 91
        4
 64
     7
 65
   257
 75
     1
175
     1
 42
1.0
 92
        8
 66
     8
 43
1.0
 76
     1
 77
     6
 78
     2
 67
     7
 79
     5
170
     0
171
     0
290
     0
174
     0
 93
        1
 44
0.0
173
     0
291
     1
 45
0.0
1001
ACAD
1000
AcDbSavedByObjectVersion
1070
     0
1000
AcDbSavedByObjectVersion
1070
     0
1000
AcDbSavedByObjectVersion
1070
     0
  0
VISUALSTYLE
  5
42E9
102
{ACAD_XDICTIONARY
360
5CE1
102
}
102
{ACAD_REACTORS
330
42E0
102
}
330
42E0
100
AcDbVisualStyle
  2

 70
     9
 71
     3
 72
     2
 73
     0
 90
        0
 40
-0.6
 41
-30.0
 62
     5
 63
     7
 74
     2
 91
        2
 64
     7
 65
   257
 75
     1
175
     1
 42
179.0
 92
        8
 66
     7
 43
1.0
 76
     1
 77
     6
 78
     2
 67
     7
 79
     3
170
     0
171
     0
290
     0
174
     0
 93
        1
 44
0.0
173
     0
291
     0
 45
0.0
1001
ACAD
1000
AcDbSavedByObjectVersion
1070
     0
1000
AcDbSavedByObjectVersion
1070
     0
1000
AcDbSavedByObjectVersion
1070
     0
  0
VISUALSTYLE
  5
42EB
102
{ACAD_XDICTIONARY
360
5CE5
102
}
102
{ACAD_REACTORS
330
42E0
102
}
330
42E0
100
AcDbVisualStyle
  2

 70
    11
 71
     2
 72
     2
 73
     0
 90
        0
 40
-0.6
 41
-30.0
 62
     5
 63
     7
 74
     1
 91
        4
 64
     7
 65
   257
 75
     1
175
     1
 42
1.0
 92
        8
 66
     7
 43
1.0
 76
     1
 77
     6
 78
     2
 67
     7
 79
     5
170
     0
171
     0
290
     0
174
     0
 93
        1
 44
-50.0
173
     0
291
     1
 45
0.0
1001
ACAD
1000
AcDbSavedByObjectVersion
1070
     0
1000
AcDbSavedByObjectVersion
1070
     0
1000
AcDbSavedByObjectVersion
1070
     0
  0
VISUALSTYLE
  5
42F3
102
{ACAD_XDICTIONARY
360
5CF5
102
}
102
{ACAD_REACTORS
330
42E0
102
}
330
42E0
100
AcDbVisualStyle
  2

 70
    22
 71
     2
 72
     2
 73
     0
 90
        0
 40
-0.6
 41
-30.0
 62
     5
 63
     7
 74
     1
 91
        4
 64
     7
 65
   257
 75
     1
175
     1
 42
1.0
 92
        8
 66
     7
 43
1.0
 76
     1
 77
     6
 78
     2
 67
     7
 79
     5
170
     0
171
     0
290
     0
174
     0
 93
        1
 44
0.0
173
     0
291
     1
 45
0.0
1001
ACAD
1000
AcDbSavedByObjectVersion
1070
     0
1000
AcDbSavedByObjectVersion
1070
     0
1000
AcDbSavedByObjectVersion
1070
     0
  0
VISUALSTYLE
  5
42EF
102
{ACAD_XDICTIONARY
360
5CED
102
}
102
{ACAD_REACTORS
330
42E0
102
}
330
42E0
100
AcDbVisualStyle
  2

 70
    15
 71
     2
 72
     2
 73
     0
 90
        0
 40
-0.6
 41
-30.0
 62
     5
 63
     7
 74
     1
 91
        4
 64
     7
 65
   257
 75
     1
175
     1
 42
1.0
 92
        8
 66
     7
 43
1.0
 76
     1
 77
     6
 78
     2
 67
     7
 79
     5
170
     0
171
     0
290
     0
174
     0
 93
        1
 44
0.0
173
     0
291
     1
 45
0.0
1001
ACAD
1000
AcDbSavedByObjectVersion
1070
     0
1000
AcDbSavedByObjectVersion
1070
     0
1000
AcDbSavedByObjectVersion
1070
     0
  0
VISUALSTYLE
  5
42E1
102
{ACAD_XDICTIONARY
360
5CD1
102
}
102
{ACAD_REACTORS
330
42E0
102
}
330
42E0
100
AcDbVisualStyle
  2

 70
     0
 71
     2
 72
     1
 73
     1
 90
        2
 40
-0.6
 41
30.0
 62
     5
 63
     7
 74
     0
 91
        4
 64
     7
 65
   257
 75
     1
175
     1
 42
1.0
 92
        8
 66
     7
 43
1.0
 76
     1
 77
     6
 78
     2
 67
     7
 79
     5
170
     0
171
     0
290
     0
174
     0
 93
       13
 44
0.0
173
     0
291
     1
 45
0.0
1001
ACAD
1000
AcDbSavedByObjectVersion
1070
     0
1000
AcDbSavedByObjectVersion
1070
     0
1000
AcDbSavedByObjectVersion
1070
     0
  0
VISUALSTYLE
  5
42E2
102
{ACAD_XDICTIONARY
360
5CD3
102
}
102
{ACAD_REACTORS
330
42E0
102
}
330
42E0
100
AcDbVisualStyle
  2

 70
     1
 71
     2
 72
     1
 73
     1
 90
        2
 40
-0.6
 41
30.0
 62
     5
 63
     7
 74
     1
 91
        4
 64
     7
 65
   257
 75
     1
175
     1
 42
1.0
 92
        0
 66
   257
 43
1.0
 76
     1
 77
     6
 78
     2
 67
     7
 79
     5
170
     0
171
     0
290
     0
174
     0
 93
       13
 44
0.0
173
     0
291
     1
 45
0.0
1001
ACAD
1000
AcDbSavedByObjectVersion
1070
     0
1000
AcDbSavedByObjectVersion
1070
     0
1000
AcDbSavedByObjectVersion
1070
     0
  0
VISUALSTYLE
  5
42E3
102
{ACAD_XDICTIONARY
360
5CD5
102
}
102
{ACAD_REACTORS
330
42E0
102
}
330
42E0
100
AcDbVisualStyle
  2

 70
     2
 71
     2
 72
     2
 73
     1
 90
        2
 40
-0.6
 41
30.0
 62
     5
 63
     7
 74
     0
 91
        4
 64
     7
 65
   257
 75
     1
175
     1
 42
1.0
 92
        0
 66
     7
 43
1.0
 76
     1
 77
     6
 78
     2
 67
     7
 79
     5
170
     0
171
     0
290
     0
174
     0
 93
       13
 44
0.0
173
     0
291
     1
 45
0.0
1001
ACAD
1000
AcDbSavedByObjectVersion
1070
     0
1000
AcDbSavedByObjectVersion
1070
     0
1000
AcDbSavedByObjectVersion
1070
     0
  0
VISUALSTYLE
  5
42E4
102
{ACAD_XDICTIONARY
360
5CD7
102
}
102
{ACAD_REACTORS
330
42E0
102
}
330
42E0
100
AcDbVisualStyle
  2

 70
     3
 71
     2
 72
     2
 73
     1
 90
        2
 40
-0.6
 41
30.0
 62
     5
 63
     7
 74
     1
 91
        4
 64
     7
 65
   257
 75
     1
175
     1
 42
1.0
 92
        0
 66
   257
 43
1.0
 76
     1
 77
     6
 78
     2
 67
     7
 79
     5
170
     0
171
     0
290
     0
174
     0
 93
       13
 44
0.0
173
     0
291
     1
 45
0.0
1001
ACAD
1000
AcDbSavedByObjectVersion
1070
     0
1000
AcDbSavedByObjectVersion
1070
     0
1000
AcDbSavedByObjectVersion
1070
     0
  0
VISUALSTYLE
  5
42F1
102
{ACAD_XDICTIONARY
360
5CF1
102
}
102
{ACAD_REACTORS
330
42E0
102
}
330
42E0
100
AcDbVisualStyle
  2

 70
    20
 71
     2
 72
     2
 73
     0
 90
        0
 40
-0.6
 41
-30.0
 62
     5
 63
     7
 74
     1
 91
        4
 64
     7
 65
   257
 75
     1
175
     1
 42
1.0
 92
       10
 66
     7
 43
1.0
 76
     1
 77
     6
 78
     2
 67
     7
 79
     5
170
     0
171
     0
290
     0
174
     0
 93
        1
 44
0.0
173
     0
291
     1
 45
0.0
1001
ACAD
1000
AcDbSavedByObjectVersion
1070
     0
1000
AcDbSavedByObjectVersion
1070
     0
1000
AcDbSavedByObjectVersion
1070
     0
  0
VISUALSTYLE
  5
42EE
102
{ACAD_XDICTIONARY
360
5CEB
102
}
102
{ACAD_REACTORS
330
42E0
102
}
330
42E0
100
AcDbVisualStyle
  2

 70
    14
 71
     2
 72
     2
 73
     0
 90
        0
 40
-0.6
 41
-30.0
 62
     5
 63
     7
 74
     1
 91
        4
 64
     7
 65
   257
 75
     7
175
     7
 42
1.0
 92
        8
 66
     7
 43
1.0
 76
     1
 77
     6
 78
     2
 67
     7
 79
     5
170
     0
171
     0
290
     0
174
     0
 93
        1
 44
0.0
173
     0
291
     1
 45
0.0
1001
ACAD
1000
AcDbSavedByObjectVersion
1070
     0
1000
AcDbSavedByObjectVersion
1070
     0
1000
AcDbSavedByObjectVersion
1070
     0
  0
VISUALSTYLE
  5
42F2
102
{ACAD_XDICTIONARY
360
5CF3
102
}
102
{ACAD_REACTORS
330
42E0
102
}
330
42E0
100
AcDbVisualStyle
  2

 70
    21
 71
     2
 72
     2
 73
     0
 90
        0
 40
-0.6
 41
-30.0
 62
     5
 63
     7
 74
     1
 91
        4
 64
     7
 65
   257
 75
     1
175
     1
 42
1.0
 92
        9
 66
     7
 43
1.0
 76
     1
 77
     6
 78
     2
 67
     7
 79
     5
170
     0
171
     0
290
     0
174
     0
 93
        1
 44
0.0
173
     0
291
     1
 45
0.0
1001
ACAD
1000
AcDbSavedByObjectVersion
1070
     0
1000
AcDbSavedByObjectVersion
1070
     0
1000
AcDbSavedByObjectVersion
1070
     0
  0
VISUALSTYLE
  5
42EA
102
{ACAD_XDICTIONARY
360
5CE3
102
}
102
{ACAD_REACTORS
330
42E0
102
}
330
42E0
100
AcDbVisualStyle
  2

 70
     8
 71
     2
 72
     2
 73
     0
 90
        0
 40
-0.6
 41
-30.0
 62
     5
 63
     7
 74
     1
 91
        0
 64
     7
 65
   257
 75
     1
175
     1
 42
1.0
 92
        8
 66
     8
 43
1.0
 76
     1
 77
     6
 78
     2
 67
     7
 79
     5
170
     0
171
     0
290
     0
174
     0
 93
       13
 44
0.0
173
     0
291
     0
 45
0.0
1001
ACAD
1000
AcDbSavedByObjectVersion
1070
     0
1000
AcDbSavedByObjectVersion
1070
     0
1000
AcDbSavedByObjectVersion
1070
     0
  0
VISUALSTYLE
  5
42ED
102
{ACAD_XDICTIONARY
360
5CE9
102
}
102
{ACAD_REACTORS
330
42E0
102
}
330
42E0
100
AcDbVisualStyle
  2

 70
    13
 71
     2
 72
     2
 73
     0
 90
        0
 40
-0.6
 41
-30.0
 62
     5
 63
     7
 74
     1
 91
        4
 64
     7
 65
   257
 75
     1
175
     1
 42
1.0
 92
       12
 66
     7
 43
1.0
 76
     1
 77
     6
 78
     2
 67
     7
 79
     5
170
     0
171
     0
290
     0
174
     0
 93
        1
 44
0.0
173
     0
291
     1
 45
0.0
1001
ACAD
1000
AcDbSavedByObjectVersion
1070
     0
1000
AcDbSavedByObjectVersion
1070
     0
1000
AcDbSavedByObjectVersion
1070
     0
  0
DICTIONARYVAR
  5
49F5
102
{ACAD_REACTORS
330
49F2
102
}
330
49F2
100
DictionaryVariables
280
     0
  1
1:1
  0
DICTIONARYVAR
  5
49F4
102
{ACAD_REACTORS
330
49F2
102
}
330
49F2
100
DictionaryVariables
280
     0
  1
STANDARD
  0
DICTIONARYVAR
  5
49F3
102
{ACAD_REACTORS
330
49F2
102
}
330
49F2
100
DictionaryVariables
280
     0
  1
STANDARD
  0
DICTIONARYVAR
  5
49F8
102
{ACAD_REACTORS
330
49F2
102
}
330
49F2
100
DictionaryVariables
280
     0
  1
1
  0
DICTIONARYVAR
  5
49F7
102
{ACAD_REACTORS
330
49F2
102
}
330
49F2
100
DictionaryVariables
280
     0
  1
0
  0
DICTIONARYVAR
  5
49F6
102
{ACAD_REACTORS
330
49F2
102
}
330
49F2
100
DictionaryVariables
280
     0
  1
127
  0
DICTIONARYVAR
  5
5CC6
102
{ACAD_REACTORS
330
49F2
102
}
330
49F2
100
DictionaryVariables
280
     0
  1
0
  0
DICTIONARY
  5
44CA
102
{ACAD_REACTORS
330
44C0
102
}
330
44C0
100
AcDbDictionary
281
     1
  0
VLO-VL
  5
44E5
102
{ACAD_REACTORS
330
44E4
102
}
330
44E4
100
vlo_VL
 90
   -64512
 91
       12
 92
        1
 40
2.5
300
(&VLO-R . 0)
  0
DICTIONARY
  5
5DDA
330
4330
100
AcDbDictionary
280
     1
281
     1
  3
ACAD_XREC_ROUNDTRIP
360
5DDB
  0
DICTIONARY
  5
5DD8
330
432C
100
AcDbDictionary
280
     1
281
     1
  3
ACAD_XREC_ROUNDTRIP
360
5DD9
  0
DICTIONARY
  5
42D1
330
42D0
100
AcDbDictionary
280
     1
281
     1
  3
ACAD_XREC_ROUNDTRIP
360
4A03
  3
BUMPTILE
360
42D3
  3
DIFFUSETILE
360
42D2
  3
OPACITYTILE
360
42D6
  3
REFLECTIONTILE
360
42D5
  3
REFRACTIONTILE
360
42D7
  3
SPECULARTILE
360
42D4
  0
DICTIONARY
  5
42C9
330
42C8
100
AcDbDictionary
280
     1
281
     1
  3
ACAD_XREC_ROUNDTRIP
360
4A02
  3
BUMPTILE
360
42CB
  3
DIFFUSETILE
360
42CA
  3
OPACITYTILE
360
42CE
  3
REFLECTIONTILE
360
42CD
  3
REFRACTIONTILE
360
42CF
  3
SPECULARTILE
360
42CC
  0
DICTIONARY
  5
42D9
330
42D8
100
AcDbDictionary
280
     1
281
     1
  3
ACAD_XREC_ROUNDTRIP
360
4A04
  3
BUMPTILE
360
42DB
  3
DIFFUSETILE
360
42DA
  3
OPACITYTILE
360
42DE
  3
REFLECTIONTILE
360
42DD
  3
REFRACTIONTILE
360
42DF
  3
SPECULARTILE
360
42DC
  0
DICTIONARY
  5
49FA
330
4326
100
AcDbDictionary
280
     1
281
     1
  3
ACAD_ROUNDTRIP_2008_TABLESTYLE_CELLSTYLEMAP
360
5DCE
  3
ACAD_XREC_ROUNDTRIP
360
5DD7
  0
DICTIONARY
  5
5CDB
330
42E6
100
AcDbDictionary
280
     1
281
     1
  3
ACAD_XREC_ROUNDTRIP
360
5CDC
  0
DICTIONARY
  5
5CDF
330
42E8
100
AcDbDictionary
280
     1
281
     1
  3
ACAD_XREC_ROUNDTRIP
360
5CE0
  0
DICTIONARY
  5
5CDD
330
42E7
100
AcDbDictionary
280
     1
281
     1
  3
ACAD_XREC_ROUNDTRIP
360
5CDE
  0
DICTIONARY
  5
5CD9
330
42E5
100
AcDbDictionary
280
     1
281
     1
  3
ACAD_XREC_ROUNDTRIP
360
5CDA
  0
DICTIONARY
  5
5CE7
330
42EC
100
AcDbDictionary
280
     1
281
     1
  3
ACAD_XREC_ROUNDTRIP
360
5CE8
  0
DICTIONARY
  5
5CEF
330
42F0
100
AcDbDictionary
280
     1
281
     1
  3
ACAD_XREC_ROUNDTRIP
360
5CF0
  0
DICTIONARY
  5
5CE1
330
42E9
100
AcDbDictionary
280
     1
281
     1
  3
ACAD_XREC_ROUNDTRIP
360
5CE2
  0
DICTIONARY
  5
5CE5
330
42EB
100
AcDbDictionary
280
     1
281
     1
  3
ACAD_XREC_ROUNDTRIP
360
5CE6
  0
DICTIONARY
  5
5CF5
330
42F3
100
AcDbDictionary
280
     1
281
     1
  3
ACAD_XREC_ROUNDTRIP
360
5CF6
  0
DICTIONARY
  5
5CED
330
42EF
100
AcDbDictionary
280
     1
281
     1
  3
ACAD_XREC_ROUNDTRIP
360
5CEE
  0
DICTIONARY
  5
5CD1
330
42E1
100
AcDbDictionary
280
     1
281
     1
  3
ACAD_XREC_ROUNDTRIP
360
5CD2
  0
DICTIONARY
  5
5CD3
330
42E2
100
AcDbDictionary
280
     1
281
     1
  3
ACAD_XREC_ROUNDTRIP
360
5CD4
  0
DICTIONARY
  5
5CD5
330
42E3
100
AcDbDictionary
280
     1
281
     1
  3
ACAD_XREC_ROUNDTRIP
360
5CD6
  0
DICTIONARY
  5
5CD7
330
42E4
100
AcDbDictionary
280
     1
281
     1
  3
ACAD_XREC_ROUNDTRIP
360
5CD8
  0
DICTIONARY
  5
5CF1
330
42F1
100
AcDbDictionary
280
     1
281
     1
  3
ACAD_XREC_ROUNDTRIP
360
5CF2
  0
DICTIONARY
  5
5CEB
330
42EE
100
AcDbDictionary
280
     1
281
     1
  3
ACAD_XREC_ROUNDTRIP
360
5CEC
  0
DICTIONARY
  5
5CF3
330
42F2
100
AcDbDictionary
280
     1
281
     1
  3
ACAD_XREC_ROUNDTRIP
360
5CF4
  0
DICTIONARY
  5
5CE3
330
42EA
100
AcDbDictionary
280
     1
281
     1
  3
ACAD_XREC_ROUNDTRIP
360
5CE4
  0
DICTIONARY
  5
5CE9
330
42ED
100
AcDbDictionary
280
     1
281
     1
  3
ACAD_XREC_ROUNDTRIP
360
5CEA
  0
XRECORD
  5
5DDB
102
{ACAD_REACTORS
330
5DDA
102
}
330
5DDA
100
AcDbXrecord
280
     1
102
SHADEPLOT
 70
     0
102
SHADEPLOTRESLEVEL
 70
     2
102
SHADEPLOTCUSTOMDPI
 70
   300
  0
XRECORD
  5
5DD9
102
{ACAD_REACTORS
330
5DD8
102
}
330
5DD8
100
AcDbXrecord
280
     1
102
SHADEPLOT
 70
     0
102
SHADEPLOTRESLEVEL
 70
     2
102
SHADEPLOTCUSTOMDPI
 70
   300
  0
XRECORD
  5
4A03
102
{ACAD_REACTORS
330
42D1
102
}
330
42D1
100
AcDbXrecord
280
     1
102
MATERIAL
148
0.0
149
0.0
149
0.0
 93
        0
 94
      127
282
     0
 72
     0
 77
     0
171
     0
175
     0
179
     0
273
     0
  0
XRECORD
  5
42D3
102
{ACAD_REACTORS
330
42D1
102
}
330
42D1
100
AcDbXrecord
280
     1
270
     1
271
     1
  0
XRECORD
  5
42D2
102
{ACAD_REACTORS
330
42D1
102
}
330
42D1
100
AcDbXrecord
280
     1
270
     1
271
     1
  0
XRECORD
  5
42D6
102
{ACAD_REACTORS
330
42D1
102
}
330
42D1
100
AcDbXrecord
280
     1
270
     1
271
     1
  0
XRECORD
  5
42D5
102
{ACAD_REACTORS
330
42D1
102
}
330
42D1
100
AcDbXrecord
280
     1
270
     1
271
     1
  0
XRECORD
  5
42D7
102
{ACAD_REACTORS
330
42D1
102
}
330
42D1
100
AcDbXrecord
280
     1
270
     1
271
     1
  0
XRECORD
  5
42D4
102
{ACAD_REACTORS
330
42D1
102
}
330
42D1
100
AcDbXrecord
280
     1
270
     1
271
     1
  0
XRECORD
  5
4A02
102
{ACAD_REACTORS
330
42C9
102
}
330
42C9
100
AcDbXrecord
280
     1
102
MATERIAL
148
0.0
149
0.0
149
0.0
 93
        0
 94
      127
282
     0
 72
     0
 77
     0
171
     0
175
     0
179
     0
273
     0
  0
XRECORD
  5
42CB
102
{ACAD_REACTORS
330
42C9
102
}
330
42C9
100
AcDbXrecord
280
     1
270
     1
271
     1
  0
XRECORD
  5
42CA
102
{ACAD_REACTORS
330
42C9
102
}
330
42C9
100
AcDbXrecord
280
     1
270
     1
271
     1
  0
XRECORD
  5
42CE
102
{ACAD_REACTORS
330
42C9
102
}
330
42C9
100
AcDbXrecord
280
     1
270
     1
271
     1
  0
XRECORD
  5
42CD
102
{ACAD_REACTORS
330
42C9
102
}
330
42C9
100
AcDbXrecord
280
     1
270
     1
271
     1
  0
XRECORD
  5
42CF
102
{ACAD_REACTORS
330
42C9
102
}
330
42C9
100
AcDbXrecord
280
     1
270
     1
271
     1
  0
XRECORD
  5
42CC
102
{ACAD_REACTORS
330
42C9
102
}
330
42C9
100
AcDbXrecord
280
     1
270
     1
271
     1
  0
XRECORD
  5
4A04
102
{ACAD_REACTORS
330
42D9
102
}
330
42D9
100
AcDbXrecord
280
     1
102
MATERIAL
148
0.0
149
0.0
149
0.0
 93
        0
 94
      127
282
     0
 72
     0
 77
     0
171
     0
175
     0
179
     0
273
     0
  0
XRECORD
  5
42DB
102
{ACAD_REACTORS
330
42D9
102
}
330
42D9
100
AcDbXrecord
280
     1
270
     1
271
     1
  0
XRECORD
  5
42DA
102
{ACAD_REACTORS
330
42D9
102
}
330
42D9
100
AcDbXrecord
280
     1
270
     1
271
     1
  0
XRECORD
  5
42DE
102
{ACAD_REACTORS
330
42D9
102
}
330
42D9
100
AcDbXrecord
280
     1
270
     1
271
     1
  0
XRECORD
  5
42DD
102
{ACAD_REACTORS
330
42D9
102
}
330
42D9
100
AcDbXrecord
280
     1
270
     1
271
     1
  0
XRECORD
  5
42DF
102
{ACAD_REACTORS
330
42D9
102
}
330
42D9
100
AcDbXrecord
280
     1
270
     1
271
     1
  0
XRECORD
  5
42DC
102
{ACAD_REACTORS
330
42D9
102
}
330
42D9
100
AcDbXrecord
280
     1
270
     1
271
     1
  0
CELLSTYLEMAP
  5
5DCE
102
{ACAD_REACTORS
330
49FA
102
}
330
49FA
100
AcDbCellStyleMap
 90
        3
300
CELLSTYLE
  1
TABLEFORMAT_BEGIN
 90
        5
170
     1
 91
        0
 92
    32768
 62
   257
 93
        1
300
CONTENTFORMAT
  1
CONTENTFORMAT_BEGIN
 90
        0
 91
        0
 92
      512
 93
        0
300

 40
0.0
140
1.0
 94
        5
 62
     0
340
4317
144
0.25
309
CONTENTFORMAT_END
171
     1
301
MARGIN
  1
CELLMARGIN_BEGIN
 40
0.06
 40
0.06
 40
0.06
 40
0.06
 40
0.18
 40
0.18
309
CELLMARGIN_END
 94
        6
 95
        1
302
GRIDFORMAT
  1
GRIDFORMAT_BEGIN
 90
        0
 91
        1
 62
     0
 92
       -2
340
0
 93
        0
 40
0.045
309
GRIDFORMAT_END
 95
        2
302
GRIDFORMAT
  1
GRIDFORMAT_BEGIN
 90
        0
 91
        1
 62
     0
 92
       -2
340
0
 93
        0
 40
0.045
309
GRIDFORMAT_END
 95
        4
302
GRIDFORMAT
  1
GRIDFORMAT_BEGIN
 90
        0
 91
        1
 62
     0
 92
       -2
340
0
 93
        0
 40
0.045
309
GRIDFORMAT_END
 95
        8
302
GRIDFORMAT
  1
GRIDFORMAT_BEGIN
 90
        0
 91
        1
 62
     0
 92
       -2
340
0
 93
        0
 40
0.045
309
GRIDFORMAT_END
 95
       16
302
GRIDFORMAT
  1
GRIDFORMAT_BEGIN
 90
        0
 91
        1
 62
     0
 92
       -2
340
0
 93
        0
 40
0.045
309
GRIDFORMAT_END
 95
       32
302
GRIDFORMAT
  1
GRIDFORMAT_BEGIN
 90
        0
 91
        1
 62
     0
 92
       -2
340
0
 93
        0
 40
0.045
309
GRIDFORMAT_END
309
TABLEFORMAT_END
  1
CELLSTYLE_BEGIN
 90
        1
 91
        1
300
_TITLE
309
CELLSTYLE_END
300
CELLSTYLE
  1
TABLEFORMAT_BEGIN
 90
        5
170
     1
 91
        0
 92
        0
 62
   257
 93
        1
300
CONTENTFORMAT
  1
CONTENTFORMAT_BEGIN
 90
        0
 91
        0
 92
      512
 93
        0
300

 40
0.0
140
1.0
 94
        5
 62
     0
340
4317
144
0.18
309
CONTENTFORMAT_END
171
     1
301
MARGIN
  1
CELLMARGIN_BEGIN
 40
0.06
 40
0.06
 40
0.06
 40
0.06
 40
0.18
 40
0.18
309
CELLMARGIN_END
 94
        6
 95
        1
302
GRIDFORMAT
  1
GRIDFORMAT_BEGIN
 90
        0
 91
        1
 62
     0
 92
       -2
340
0
 93
        0
 40
0.045
309
GRIDFORMAT_END
 95
        2
302
GRIDFORMAT
  1
GRIDFORMAT_BEGIN
 90
        0
 91
        1
 62
     0
 92
       -2
340
0
 93
        0
 40
0.045
309
GRIDFORMAT_END
 95
        4
302
GRIDFORMAT
  1
GRIDFORMAT_BEGIN
 90
        0
 91
        1
 62
     0
 92
       -2
340
0
 93
        0
 40
0.045
309
GRIDFORMAT_END
 95
        8
302
GRIDFORMAT
  1
GRIDFORMAT_BEGIN
 90
        0
 91
        1
 62
     0
 92
       -2
340
0
 93
        0
 40
0.045
309
GRIDFORMAT_END
 95
       16
302
GRIDFORMAT
  1
GRIDFORMAT_BEGIN
 90
        0
 91
        1
 62
     0
 92
       -2
340
0
 93
        0
 40
0.045
309
GRIDFORMAT_END
 95
       32
302
GRIDFORMAT
  1
GRIDFORMAT_BEGIN
 90
        0
 91
        1
 62
     0
 92
       -2
340
0
 93
        0
 40
0.045
309
GRIDFORMAT_END
309
TABLEFORMAT_END
  1
CELLSTYLE_BEGIN
 90
        2
 91
        1
300
_HEADER
309
CELLSTYLE_END
300
CELLSTYLE
  1
TABLEFORMAT_BEGIN
 90
        5
170
     1
 91
        0
 92
        0
 62
   257
 93
        1
300
CONTENTFORMAT
  1
CONTENTFORMAT_BEGIN
 90
        0
 91
        0
 92
      512
 93
        0
300

 40
0.0
140
1.0
 94
        2
 62
     0
340
4317
144
0.18
309
CONTENTFORMAT_END
171
     1
301
MARGIN
  1
CELLMARGIN_BEGIN
 40
0.06
 40
0.06
 40
0.06
 40
0.06
 40
0.18
 40
0.18
309
CELLMARGIN_END
 94
        6
 95
        1
302
GRIDFORMAT
  1
GRIDFORMAT_BEGIN
 90
        0
 91
        1
 62
     0
 92
       -2
340
0
 93
        0
 40
0.045
309
GRIDFORMAT_END
 95
        2
302
GRIDFORMAT
  1
GRIDFORMAT_BEGIN
 90
        0
 91
        1
 62
     0
 92
       -2
340
0
 93
        0
 40
0.045
309
GRIDFORMAT_END
 95
        4
302
GRIDFORMAT
  1
GRIDFORMAT_BEGIN
 90
        0
 91
        1
 62
     0
 92
       -2
340
0
 93
        0
 40
0.045
309
GRIDFORMAT_END
 95
        8
302
GRIDFORMAT
  1
GRIDFORMAT_BEGIN
 90
        0
 91
        1
 62
     0
 92
       -2
340
0
 93
        0
 40
0.045
309
GRIDFORMAT_END
 95
       16
302
GRIDFORMAT
  1
GRIDFORMAT_BEGIN
 90
        0
 91
        1
 62
     0
 92
       -2
340
0
 93
        0
 40
0.045
309
GRIDFORMAT_END
 95
       32
302
GRIDFORMAT
  1
GRIDFORMAT_BEGIN
 90
        0
 91
        1
 62
     0
 92
       -2
340
0
 93
        0
 40
0.045
309
GRIDFORMAT_END
309
TABLEFORMAT_END
  1
CELLSTYLE_BEGIN
 90
        3
 91
        2
300
_DATA
309
CELLSTYLE_END
  0
XRECORD
  5
5DD7
102
{ACAD_REACTORS
330
49FA
102
}
330
49FA
100
AcDbXrecord
280
     1
102
ACAD_ROUNDTRIP_PRE2007_TABLESTYLE
 90
      512
 91
        0
  1

 92
      512
 93
        0
  2

 94
      512
 95
        0
  3

  0
XRECORD
  5
5CDC
102
{ACAD_REACTORS
330
5CDB
102
}
330
5CDB
100
AcDbXrecord
280
     1
102
RTVSPropertyOp0
 70
     1
102
RTVSPropertyOp1
 70
     1
102
RTVSPropertyOp2
 70
     1
102
RTVSPropertyOp3
 70
     1
102
RTVSPropertyOp4
 70
     1
102
RTVSPropertyOp5
 70
     1
102
RTVSPropertyOp6
 70
     1
102
RTVSPropertyOp7
 70
     1
102
RTVSPropertyOp8
 70
     1
102
RTVSPropertyOp9
 70
     1
102
RTVSPropertyOp10
 70
     1
102
RTVSPropertyOp11
 70
     1
102
RTVSPropertyOp12
 70
     1
102
RTVSPropertyOp13
 70
     1
102
RTVSPropertyOp14
 70
     1
102
RTVSPropertyOp15
 70
     1
102
RTVSPropertyOp16
 70
     1
102
RTVSPropertyOp17
 70
     1
102
RTVSPropertyOp18
 70
     1
102
RTVSPropertyOp19
 70
     1
102
RTVSPropertyOp20
 70
     1
102
RTVSPropertyOp21
 70
     1
102
RTVSPropertyOp22
 70
     1
102
RTVSPropertyOp23
 70
     1
102
RTVSPropertyOp24
 70
     1
102
RTVSPropertyOp25
 70
     1
102
RTVSPropertyOp26
 70
     1
102
RTVSPropertyOp27
 70
     1
  0
XRECORD
  5
5CE0
102
{ACAD_REACTORS
330
5CDF
102
}
330
5CDF
100
AcDbXrecord
280
     1
102
RTVSPropertyOp0
 70
     1
102
RTVSPropertyOp1
 70
     1
102
RTVSPropertyOp2
 70
     1
102
RTVSPropertyOp3
 70
     1
102
RTVSPropertyOp4
 70
     1
102
RTVSPropertyOp5
 70
     1
102
RTVSPropertyOp6
 70
     1
102
RTVSPropertyOp7
 70
     1
102
RTVSPropertyOp8
 70
     1
102
RTVSPropertyOp9
 70
     1
102
RTVSPropertyOp10
 70
     1
102
RTVSPropertyOp11
 70
     1
102
RTVSPropertyOp12
 70
     1
102
RTVSPropertyOp13
 70
     1
102
RTVSPropertyOp14
 70
     1
102
RTVSPropertyOp15
 70
     1
102
RTVSPropertyOp16
 70
     1
102
RTVSPropertyOp17
 70
     1
102
RTVSPropertyOp18
 70
     1
102
RTVSPropertyOp19
 70
     1
102
RTVSPropertyOp20
 70
     1
102
RTVSPropertyOp21
 70
     1
102
RTVSPropertyOp22
 70
     1
102
RTVSPropertyOp23
 70
     1
102
RTVSPropertyOp24
 70
     1
102
RTVSPropertyOp25
 70
     1
102
RTVSPropertyOp26
 70
     1
102
RTVSPropertyOp27
 70
     1
  0
XRECORD
  5
5CDE
102
{ACAD_REACTORS
330
5CDD
102
}
330
5CDD
100
AcDbXrecord
280
     1
102
RTVSPropertyOp0
 70
     1
102
RTVSPropertyOp1
 70
     1
102
RTVSPropertyOp2
 70
     1
102
RTVSPropertyOp3
 70
     1
102
RTVSPropertyOp4
 70
     1
102
RTVSPropertyOp5
 70
     1
102
RTVSPropertyOp6
 70
     1
102
RTVSPropertyOp7
 70
     1
102
RTVSPropertyOp8
 70
     1
102
RTVSPropertyOp9
 70
     1
102
RTVSPropertyOp10
 70
     1
102
RTVSPropertyOp11
 70
     1
102
RTVSPropertyOp12
 70
     1
102
RTVSPropertyOp13
 70
     1
102
RTVSPropertyOp14
 70
     1
102
RTVSPropertyOp15
 70
     1
102
RTVSPropertyOp16
 70
     1
102
RTVSPropertyOp17
 70
     1
102
RTVSPropertyOp18
 70
     1
102
RTVSPropertyOp19
 70
     1
102
RTVSPropertyOp20
 70
     1
102
RTVSPropertyOp21
 70
     1
102
RTVSPropertyOp22
 70
     1
102
RTVSPropertyOp23
 70
     1
102
RTVSPropertyOp24
 70
     1
102
RTVSPropertyOp25
 70
     1
102
RTVSPropertyOp26
 70
     1
102
RTVSPropertyOp27
 70
     1
  0
XRECORD
  5
5CDA
102
{ACAD_REACTORS
330
5CD9
102
}
330
5CD9
100
AcDbXrecord
280
     1
102
RTVSPropertyOp0
 70
     1
102
RTVSPropertyOp1
 70
     1
102
RTVSPropertyOp2
 70
     1
102
RTVSPropertyOp3
 70
     1
102
RTVSPropertyOp4
 70
     1
102
RTVSPropertyOp5
 70
     1
102
RTVSPropertyOp6
 70
     1
102
RTVSPropertyOp7
 70
     1
102
RTVSPropertyOp8
 70
     1
102
RTVSPropertyOp9
 70
     1
102
RTVSPropertyOp10
 70
     1
102
RTVSPropertyOp11
 70
     1
102
RTVSPropertyOp12
 70
     1
102
RTVSPropertyOp13
 70
     1
102
RTVSPropertyOp14
 70
     1
102
RTVSPropertyOp15
 70
     1
102
RTVSPropertyOp16
 70
     1
102
RTVSPropertyOp17
 70
     1
102
RTVSPropertyOp18
 70
     1
102
RTVSPropertyOp19
 70
     1
102
RTVSPropertyOp20
 70
     1
102
RTVSPropertyOp21
 70
     1
102
RTVSPropertyOp22
 70
     1
102
RTVSPropertyOp23
 70
     1
102
RTVSPropertyOp24
 70
     1
102
RTVSPropertyOp25
 70
     1
102
RTVSPropertyOp26
 70
     1
102
RTVSPropertyOp27
 70
     1
  0
XRECORD
  5
5CE8
102
{ACAD_REACTORS
330
5CE7
102
}
330
5CE7
100
AcDbXrecord
280
     1
102
RTVSPropertyOp0
 70
     1
102
RTVSPropertyOp1
 70
     1
102
RTVSPropertyOp2
 70
     1
102
RTVSPropertyOp3
 70
     1
102
RTVSPropertyOp4
 70
     1
102
RTVSPropertyOp5
 70
     1
102
RTVSPropertyOp6
 70
     1
102
RTVSPropertyOp7
 70
     1
102
RTVSPropertyOp8
 70
     1
102
RTVSPropertyOp9
 70
     1
102
RTVSPropertyOp10
 70
     1
102
RTVSPropertyOp11
 70
     1
102
RTVSPropertyOp12
 70
     1
102
RTVSPropertyOp13
 70
     1
102
RTVSPropertyOp14
 70
     1
102
RTVSPropertyOp15
 70
     1
102
RTVSPropertyOp16
 70
     1
102
RTVSPropertyOp17
 70
     1
102
RTVSPropertyOp18
 70
     1
102
RTVSPropertyOp19
 70
     1
102
RTVSPropertyOp20
 70
     1
102
RTVSPropertyOp21
 70
     1
102
RTVSPropertyOp22
 70
     1
102
RTVSPropertyOp23
 70
     1
102
RTVSPropertyOp24
 70
     1
102
RTVSPropertyOp25
 70
     1
102
RTVSPropertyOp26
 70
     1
102
RTVSPropertyOp27
 70
     1
  0
XRECORD
  5
5CF0
102
{ACAD_REACTORS
330
5CEF
102
}
330
5CEF
100
AcDbXrecord
280
     1
102
RTVSPropertyOp0
 70
     1
102
RTVSPropertyOp1
 70
     1
102
RTVSPropertyOp2
 70
     1
102
RTVSPropertyOp3
 70
     1
102
RTVSPropertyOp4
 70
     1
102
RTVSPropertyOp5
 70
     1
102
RTVSPropertyOp6
 70
     1
102
RTVSPropertyOp7
 70
     1
102
RTVSPropertyOp8
 70
     1
102
RTVSPropertyOp9
 70
     1
102
RTVSPropertyOp10
 70
     1
102
RTVSPropertyOp11
 70
     1
102
RTVSPropertyOp12
 70
     1
102
RTVSPropertyOp13
 70
     1
102
RTVSPropertyOp14
 70
     1
102
RTVSPropertyOp15
 70
     1
102
RTVSPropertyOp16
 70
     1
102
RTVSPropertyOp17
 70
     1
102
RTVSPropertyOp18
 70
     1
102
RTVSPropertyOp19
 70
     1
102
RTVSPropertyOp20
 70
     1
102
RTVSPropertyOp21
 70
     1
102
RTVSPropertyOp22
 70
     1
102
RTVSPropertyOp23
 70
     1
102
RTVSPropertyOp24
 70
     1
102
RTVSPropertyOp25
 70
     1
102
RTVSPropertyOp26
 70
     1
102
RTVSPropertyOp27
 70
     1
  0
XRECORD
  5
5CE2
102
{ACAD_REACTORS
330
5CE1
102
}
330
5CE1
100
AcDbXrecord
280
     1
102
RTVSPropertyOp0
 70
     1
102
RTVSPropertyOp1
 70
     1
102
RTVSPropertyOp2
 70
     1
102
RTVSPropertyOp3
 70
     1
102
RTVSPropertyOp4
 70
     1
102
RTVSPropertyOp5
 70
     1
102
RTVSPropertyOp6
 70
     1
102
RTVSPropertyOp7
 70
     1
102
RTVSPropertyOp8
 70
     1
102
RTVSPropertyOp9
 70
     1
102
RTVSPropertyOp10
 70
     1
102
RTVSPropertyOp11
 70
     1
102
RTVSPropertyOp12
 70
     1
102
RTVSPropertyOp13
 70
     1
102
RTVSPropertyOp14
 70
     1
102
RTVSPropertyOp15
 70
     1
102
RTVSPropertyOp16
 70
     1
102
RTVSPropertyOp17
 70
     1
102
RTVSPropertyOp18
 70
     1
102
RTVSPropertyOp19
 70
     1
102
RTVSPropertyOp20
 70
     1
102
RTVSPropertyOp21
 70
     1
102
RTVSPropertyOp22
 70
     1
102
RTVSPropertyOp23
 70
     1
102
RTVSPropertyOp24
 70
     1
102
RTVSPropertyOp25
 70
     1
102
RTVSPropertyOp26
 70
     1
102
RTVSPropertyOp27
 70
     1
  0
XRECORD
  5
5CE6
102
{ACAD_REACTORS
330
5CE5
102
}
330
5CE5
100
AcDbXrecord
280
     1
102
RTVSPropertyOp0
 70
     1
102
RTVSPropertyOp1
 70
     1
102
RTVSPropertyOp2
 70
     1
102
RTVSPropertyOp3
 70
     1
102
RTVSPropertyOp4
 70
     1
102
RTVSPropertyOp5
 70
     1
102
RTVSPropertyOp6
 70
     1
102
RTVSPropertyOp7
 70
     1
102
RTVSPropertyOp8
 70
     1
102
RTVSPropertyOp9
 70
     1
102
RTVSPropertyOp10
 70
     1
102
RTVSPropertyOp11
 70
     1
102
RTVSPropertyOp12
 70
     1
102
RTVSPropertyOp13
 70
     1
102
RTVSPropertyOp14
 70
     1
102
RTVSPropertyOp15
 70
     1
102
RTVSPropertyOp16
 70
     1
102
RTVSPropertyOp17
 70
     1
102
RTVSPropertyOp18
 70
     1
102
RTVSPropertyOp19
 70
     1
102
RTVSPropertyOp20
 70
     1
102
RTVSPropertyOp21
 70
     1
102
RTVSPropertyOp22
 70
     1
102
RTVSPropertyOp23
 70
     1
102
RTVSPropertyOp24
 70
     1
102
RTVSPropertyOp25
 70
     1
102
RTVSPropertyOp26
 70
     1
102
RTVSPropertyOp27
 70
     1
  0
XRECORD
  5
5CF6
102
{ACAD_REACTORS
330
5CF5
102
}
330
5CF5
100
AcDbXrecord
280
     1
102
RTVSPropertyOp0
 70
     0
102
RTVSPropertyOp1
 70
     0
102
RTVSPropertyOp2
 70
     0
102
RTVSPropertyOp3
 70
     0
102
RTVSPropertyOp4
 70
     0
102
RTVSPropertyOp5
 70
     0
102
RTVSPropertyOp6
 70
     0
102
RTVSPropertyOp7
 70
     0
102
RTVSPropertyOp8
 70
     0
102
RTVSPropertyOp9
 70
     0
102
RTVSPropertyOp10
 70
     0
102
RTVSPropertyOp11
 70
     0
102
RTVSPropertyOp12
 70
     0
102
RTVSPropertyOp13
 70
     0
102
RTVSPropertyOp14
 70
     2
102
RTVSPropertyOp15
 70
     0
102
RTVSPropertyOp16
 70
     0
102
RTVSPropertyOp17
 70
     0
102
RTVSPropertyOp18
 70
     0
102
RTVSPropertyOp19
 70
     0
102
RTVSPropertyOp20
 70
     0
102
RTVSPropertyOp21
 70
     0
102
RTVSPropertyOp22
 70
     0
102
RTVSPropertyOp23
 70
     0
102
RTVSPropertyOp24
 70
     0
102
RTVSPropertyOp25
 70
     0
102
RTVSPropertyOp26
 70
     0
102
RTVSPropertyOp27
 70
     0
  0
XRECORD
  5
5CEE
102
{ACAD_REACTORS
330
5CED
102
}
330
5CED
100
AcDbXrecord
280
     1
102
RTVSPropertyOp0
 70
     1
102
RTVSPropertyOp1
 70
     1
102
RTVSPropertyOp2
 70
     1
102
RTVSPropertyOp3
 70
     1
102
RTVSPropertyOp4
 70
     1
102
RTVSPropertyOp5
 70
     1
102
RTVSPropertyOp6
 70
     1
102
RTVSPropertyOp7
 70
     1
102
RTVSPropertyOp8
 70
     1
102
RTVSPropertyOp9
 70
     1
102
RTVSPropertyOp10
 70
     1
102
RTVSPropertyOp11
 70
     1
102
RTVSPropertyOp12
 70
     1
102
RTVSPropertyOp13
 70
     1
102
RTVSPropertyOp14
 70
     1
102
RTVSPropertyOp15
 70
     1
102
RTVSPropertyOp16
 70
     1
102
RTVSPropertyOp17
 70
     1
102
RTVSPropertyOp18
 70
     1
102
RTVSPropertyOp19
 70
     1
102
RTVSPropertyOp20
 70
     1
102
RTVSPropertyOp21
 70
     1
102
RTVSPropertyOp22
 70
     1
102
RTVSPropertyOp23
 70
     1
102
RTVSPropertyOp24
 70
     1
102
RTVSPropertyOp25
 70
     1
102
RTVSPropertyOp26
 70
     1
102
RTVSPropertyOp27
 70
     1
  0
XRECORD
  5
5CD2
102
{ACAD_REACTORS
330
5CD1
102
}
330
5CD1
100
AcDbXrecord
280
     1
102
RTVSPropertyOp0
 70
     1
102
RTVSPropertyOp1
 70
     1
102
RTVSPropertyOp2
 70
     1
102
RTVSPropertyOp3
 70
     1
102
RTVSPropertyOp4
 70
     1
102
RTVSPropertyOp5
 70
     1
102
RTVSPropertyOp6
 70
     1
102
RTVSPropertyOp7
 70
     1
102
RTVSPropertyOp8
 70
     1
102
RTVSPropertyOp9
 70
     1
102
RTVSPropertyOp10
 70
     1
102
RTVSPropertyOp11
 70
     1
102
RTVSPropertyOp12
 70
     1
102
RTVSPropertyOp13
 70
     1
102
RTVSPropertyOp14
 70
     1
102
RTVSPropertyOp15
 70
     1
102
RTVSPropertyOp16
 70
     1
102
RTVSPropertyOp17
 70
     1
102
RTVSPropertyOp18
 70
     1
102
RTVSPropertyOp19
 70
     1
102
RTVSPropertyOp20
 70
     1
102
RTVSPropertyOp21
 70
     1
102
RTVSPropertyOp22
 70
     1
102
RTVSPropertyOp23
 70
     1
102
RTVSPropertyOp24
 70
     1
102
RTVSPropertyOp25
 70
     1
102
RTVSPropertyOp26
 70
     1
102
RTVSPropertyOp27
 70
     1
  0
XRECORD
  5
5CD4
102
{ACAD_REACTORS
330
5CD3
102
}
330
5CD3
100
AcDbXrecord
280
     1
102
RTVSPropertyOp0
 70
     1
102
RTVSPropertyOp1
 70
     1
102
RTVSPropertyOp2
 70
     1
102
RTVSPropertyOp3
 70
     1
102
RTVSPropertyOp4
 70
     1
102
RTVSPropertyOp5
 70
     1
102
RTVSPropertyOp6
 70
     1
102
RTVSPropertyOp7
 70
     1
102
RTVSPropertyOp8
 70
     1
102
RTVSPropertyOp9
 70
     1
102
RTVSPropertyOp10
 70
     1
102
RTVSPropertyOp11
 70
     1
102
RTVSPropertyOp12
 70
     1
102
RTVSPropertyOp13
 70
     1
102
RTVSPropertyOp14
 70
     1
102
RTVSPropertyOp15
 70
     1
102
RTVSPropertyOp16
 70
     1
102
RTVSPropertyOp17
 70
     1
102
RTVSPropertyOp18
 70
     1
102
RTVSPropertyOp19
 70
     1
102
RTVSPropertyOp20
 70
     1
102
RTVSPropertyOp21
 70
     1
102
RTVSPropertyOp22
 70
     1
102
RTVSPropertyOp23
 70
     1
102
RTVSPropertyOp24
 70
     1
102
RTVSPropertyOp25
 70
     1
102
RTVSPropertyOp26
 70
     1
102
RTVSPropertyOp27
 70
     1
  0
XRECORD
  5
5CD6
102
{ACAD_REACTORS
330
5CD5
102
}
330
5CD5
100
AcDbXrecord
280
     1
102
RTVSPropertyOp0
 70
     1
102
RTVSPropertyOp1
 70
     1
102
RTVSPropertyOp2
 70
     1
102
RTVSPropertyOp3
 70
     1
102
RTVSPropertyOp4
 70
     1
102
RTVSPropertyOp5
 70
     1
102
RTVSPropertyOp6
 70
     1
102
RTVSPropertyOp7
 70
     1
102
RTVSPropertyOp8
 70
     1
102
RTVSPropertyOp9
 70
     1
102
RTVSPropertyOp10
 70
     1
102
RTVSPropertyOp11
 70
     1
102
RTVSPropertyOp12
 70
     1
102
RTVSPropertyOp13
 70
     1
102
RTVSPropertyOp14
 70
     1
102
RTVSPropertyOp15
 70
     1
102
RTVSPropertyOp16
 70
     1
102
RTVSPropertyOp17
 70
     1
102
RTVSPropertyOp18
 70
     1
102
RTVSPropertyOp19
 70
     1
102
RTVSPropertyOp20
 70
     1
102
RTVSPropertyOp21
 70
     1
102
RTVSPropertyOp22
 70
     1
102
RTVSPropertyOp23
 70
     1
102
RTVSPropertyOp24
 70
     1
102
RTVSPropertyOp25
 70
     1
102
RTVSPropertyOp26
 70
     1
102
RTVSPropertyOp27
 70
     1
  0
XRECORD
  5
5CD8
102
{ACAD_REACTORS
330
5CD7
102
}
330
5CD7
100
AcDbXrecord
280
     1
102
RTVSPropertyOp0
 70
     1
102
RTVSPropertyOp1
 70
     1
102
RTVSPropertyOp2
 70
     1
102
RTVSPropertyOp3
 70
     1
102
RTVSPropertyOp4
 70
     1
102
RTVSPropertyOp5
 70
     1
102
RTVSPropertyOp6
 70
     1
102
RTVSPropertyOp7
 70
     1
102
RTVSPropertyOp8
 70
     1
102
RTVSPropertyOp9
 70
     1
102
RTVSPropertyOp10
 70
     1
102
RTVSPropertyOp11
 70
     1
102
RTVSPropertyOp12
 70
     1
102
RTVSPropertyOp13
 70
     1
102
RTVSPropertyOp14
 70
     1
102
RTVSPropertyOp15
 70
     1
102
RTVSPropertyOp16
 70
     1
102
RTVSPropertyOp17
 70
     1
102
RTVSPropertyOp18
 70
     1
102
RTVSPropertyOp19
 70
     1
102
RTVSPropertyOp20
 70
     1
102
RTVSPropertyOp21
 70
     1
102
RTVSPropertyOp22
 70
     1
102
RTVSPropertyOp23
 70
     1
102
RTVSPropertyOp24
 70
     1
102
RTVSPropertyOp25
 70
     1
102
RTVSPropertyOp26
 70
     1
102
RTVSPropertyOp27
 70
     1
  0
XRECORD
  5
5CF2
102
{ACAD_REACTORS
330
5CF1
102
}
330
5CF1
100
AcDbXrecord
280
     1
102
RTVSPropertyOp0
 70
     0
102
RTVSPropertyOp1
 70
     0
102
RTVSPropertyOp2
 70
     0
102
RTVSPropertyOp3
 70
     0
102
RTVSPropertyOp4
 70
     0
102
RTVSPropertyOp5
 70
     0
102
RTVSPropertyOp6
 70
     0
102
RTVSPropertyOp7
 70
     0
102
RTVSPropertyOp8
 70
     0
102
RTVSPropertyOp9
 70
     0
102
RTVSPropertyOp10
 70
     0
102
RTVSPropertyOp11
 70
     0
102
RTVSPropertyOp12
 70
     0
102
RTVSPropertyOp13
 70
     0
102
RTVSPropertyOp14
 70
     2
102
RTVSPropertyOp15
 70
     0
102
RTVSPropertyOp16
 70
     0
102
RTVSPropertyOp17
 70
     0
102
RTVSPropertyOp18
 70
     0
102
RTVSPropertyOp19
 70
     0
102
RTVSPropertyOp20
 70
     0
102
RTVSPropertyOp21
 70
     0
102
RTVSPropertyOp22
 70
     0
102
RTVSPropertyOp23
 70
     0
102
RTVSPropertyOp24
 70
     0
102
RTVSPropertyOp25
 70
     0
102
RTVSPropertyOp26
 70
     0
102
RTVSPropertyOp27
 70
     0
  0
XRECORD
  5
5CEC
102
{ACAD_REACTORS
330
5CEB
102
}
330
5CEB
100
AcDbXrecord
280
     1
102
RTVSPropertyOp0
 70
     1
102
RTVSPropertyOp1
 70
     1
102
RTVSPropertyOp2
 70
     1
102
RTVSPropertyOp3
 70
     1
102
RTVSPropertyOp4
 70
     1
102
RTVSPropertyOp5
 70
     1
102
RTVSPropertyOp6
 70
     1
102
RTVSPropertyOp7
 70
     1
102
RTVSPropertyOp8
 70
     1
102
RTVSPropertyOp9
 70
     1
102
RTVSPropertyOp10
 70
     1
102
RTVSPropertyOp11
 70
     1
102
RTVSPropertyOp12
 70
     1
102
RTVSPropertyOp13
 70
     1
102
RTVSPropertyOp14
 70
     1
102
RTVSPropertyOp15
 70
     1
102
RTVSPropertyOp16
 70
     1
102
RTVSPropertyOp17
 70
     1
102
RTVSPropertyOp18
 70
     1
102
RTVSPropertyOp19
 70
     1
102
RTVSPropertyOp20
 70
     1
102
RTVSPropertyOp21
 70
     1
102
RTVSPropertyOp22
 70
     1
102
RTVSPropertyOp23
 70
     1
102
RTVSPropertyOp24
 70
     1
102
RTVSPropertyOp25
 70
     1
102
RTVSPropertyOp26
 70
     1
102
RTVSPropertyOp27
 70
     1
  0
XRECORD
  5
5CF4
102
{ACAD_REACTORS
330
5CF3
102
}
330
5CF3
100
AcDbXrecord
280
     1
102
RTVSPropertyOp0
 70
     0
102
RTVSPropertyOp1
 70
     0
102
RTVSPropertyOp2
 70
     0
102
RTVSPropertyOp3
 70
     0
102
RTVSPropertyOp4
 70
     0
102
RTVSPropertyOp5
 70
     0
102
RTVSPropertyOp6
 70
     0
102
RTVSPropertyOp7
 70
     0
102
RTVSPropertyOp8
 70
     0
102
RTVSPropertyOp9
 70
     0
102
RTVSPropertyOp10
 70
     0
102
RTVSPropertyOp11
 70
     0
102
RTVSPropertyOp12
 70
     0
102
RTVSPropertyOp13
 70
     0
102
RTVSPropertyOp14
 70
     2
102
RTVSPropertyOp15
 70
     0
102
RTVSPropertyOp16
 70
     0
102
RTVSPropertyOp17
 70
     0
102
RTVSPropertyOp18
 70
     0
102
RTVSPropertyOp19
 70
     0
102
RTVSPropertyOp20
 70
     0
102
RTVSPropertyOp21
 70
     0
102
RTVSPropertyOp22
 70
     0
102
RTVSPropertyOp23
 70
     0
102
RTVSPropertyOp24
 70
     0
102
RTVSPropertyOp25
 70
     0
102
RTVSPropertyOp26
 70
     0
102
RTVSPropertyOp27
 70
     0
  0
XRECORD
  5
5CE4
102
{ACAD_REACTORS
330
5CE3
102
}
330
5CE3
100
AcDbXrecord
280
     1
102
RTVSPropertyOp0
 70
     1
102
RTVSPropertyOp1
 70
     1
102
RTVSPropertyOp2
 70
     1
102
RTVSPropertyOp3
 70
     1
102
RTVSPropertyOp4
 70
     1
102
RTVSPropertyOp5
 70
     1
102
RTVSPropertyOp6
 70
     1
102
RTVSPropertyOp7
 70
     1
102
RTVSPropertyOp8
 70
     1
102
RTVSPropertyOp9
 70
     1
102
RTVSPropertyOp10
 70
     1
102
RTVSPropertyOp11
 70
     1
102
RTVSPropertyOp12
 70
     1
102
RTVSPropertyOp13
 70
     1
102
RTVSPropertyOp14
 70
     1
102
RTVSPropertyOp15
 70
     1
102
RTVSPropertyOp16
 70
     1
102
RTVSPropertyOp17
 70
     1
102
RTVSPropertyOp18
 70
     1
102
RTVSPropertyOp19
 70
     1
102
RTVSPropertyOp20
 70
     1
102
RTVSPropertyOp21
 70
     1
102
RTVSPropertyOp22
 70
     1
102
RTVSPropertyOp23
 70
     1
102
RTVSPropertyOp24
 70
     1
102
RTVSPropertyOp25
 70
     1
102
RTVSPropertyOp26
 70
     1
102
RTVSPropertyOp27
 70
     1
  0
XRECORD
  5
5CEA
102
{ACAD_REACTORS
330
5CE9
102
}
330
5CE9
100
AcDbXrecord
280
     1
102
RTVSPropertyOp0
 70
     1
102
RTVSPropertyOp1
 70
     1
102
RTVSPropertyOp2
 70
     1
102
RTVSPropertyOp3
 70
     1
102
RTVSPropertyOp4
 70
     1
102
RTVSPropertyOp5
 70
     1
102
RTVSPropertyOp6
 70
     1
102
RTVSPropertyOp7
 70
     1
102
RTVSPropertyOp8
 70
     1
102
RTVSPropertyOp9
 70
     1
102
RTVSPropertyOp10
 70
     1
102
RTVSPropertyOp11
 70
     1
102
RTVSPropertyOp12
 70
     1
102
RTVSPropertyOp13
 70
     1
102
RTVSPropertyOp14
 70
     1
102
RTVSPropertyOp15
 70
     1
102
RTVSPropertyOp16
 70
     1
102
RTVSPropertyOp17
 70
     1
102
RTVSPropertyOp18
 70
     1
102
RTVSPropertyOp19
 70
     1
102
RTVSPropertyOp20
 70
     1
102
RTVSPropertyOp21
 70
     1
102
RTVSPropertyOp22
 70
     1
102
RTVSPropertyOp23
 70
     1
102
RTVSPropertyOp24
 70
     1
102
RTVSPropertyOp25
 70
     1
102
RTVSPropertyOp26
 70
     1
102
RTVSPropertyOp27
 70
     1
  0
ENDSEC
  0
EOF
